<?xml version="1.0" standalone="no"?>
<!DOCTYPE svg PUBLIC "-//W3C//DTD SVG 1.1//EN" "http://www.w3.org/Graphics/SVG/1.1/DTD/svg11.dtd" >
<svg xmlns="http://www.w3.org/2000/svg">
<metadata>Generated by IcoMoon</metadata>
<defs>
<font id="rcs-font" horiz-adv-x="1024">
<font-face units-per-em="1024" ascent="960" descent="-64" />
<missing-glyph horiz-adv-x="1024" />
<glyph unicode="&#x20;" horiz-adv-x="512" d="" />
<glyph unicode="&#xe900;" glyph-name="arrow-big-left" d="M587.231-38.874c2.098-8.68-3.237-17.417-11.916-19.515-8.169-1.975-16.389 2.635-19.077 10.42l-0.438 1.496-119.487 494.24 119.399 494.24c2.097 8.68 10.833 14.016 19.513 11.92 8.169-1.974 13.377-9.828 12.213-17.982l-0.294-1.531-117.555-486.656 117.641-486.632z" />
<glyph unicode="&#xe901;" glyph-name="arrow-big-right" d="M436.769-38.874c-2.098-8.68 3.237-17.417 11.916-19.515 8.169-1.975 16.389 2.635 19.077 10.42l0.438 1.496 119.487 494.24-119.399 494.24c-2.097 8.68-10.833 14.016-19.513 11.92-8.169-1.974-13.377-9.828-12.213-17.982l0.294-1.531 117.555-486.656-117.641-486.632z" />
<glyph unicode="&#xe902;" glyph-name="arrow-left" d="M720.046 106.28c23.351-26.535 20.769-66.975-5.765-90.326-25.138-22.122-62.757-20.969-86.501 1.775l-3.824 3.99-352 400c-20.016 22.745-21.199 56.151-3.546 80.157l3.531 4.386 351.742 400c23.341 26.543 63.78 29.139 90.324 5.798 25.146-22.113 28.8-59.571 9.268-86.022l-3.47-4.302-314.555-357.705 314.798-357.752z" />
<glyph unicode="&#xe903;" glyph-name="arrow-right" d="M271.956 106.28c-23.351-26.535-20.769-66.975 5.765-90.326 25.138-22.122 62.757-20.969 86.501 1.775l3.824 3.99 352 400c20.016 22.745 21.199 56.151 3.546 80.157l-3.531 4.386-351.742 400c-23.341 26.543-63.78 29.139-90.324 5.798-25.146-22.113-28.8-59.571-9.268-86.022l3.47-4.302 314.555-357.705-314.798-357.752z" />
<glyph unicode="&#xe904;" glyph-name="arrow-down" d="M790.627 598.627c-11.535 11.535-29.687 12.423-42.24 2.662l-3.015-2.662-233.373-233.347-233.373 233.347c-11.535 11.535-29.687 12.423-42.24 2.662l-3.015-2.662c-11.535-11.535-12.423-29.687-2.662-42.24l2.662-3.015 256-256c11.535-11.535 29.687-12.423 42.24-2.662l3.015 2.662 256 256c12.497 12.497 12.497 32.758 0 45.255z" />
<glyph unicode="&#xe905;" glyph-name="arrow-up" d="M233.373 297.373c11.535-11.535 29.687-12.423 42.24-2.662l3.015 2.662 233.373 233.347 233.373-233.347c11.535-11.535 29.687-12.423 42.24-2.662l3.015 2.662c11.535 11.535 12.423 29.687 2.662 42.24l-2.662 3.015-256 256c-11.535 11.535-29.687 12.423-42.24 2.662l-3.015-2.662-256-256c-12.497-12.497-12.497-32.758 0-45.255z" />
<glyph unicode="&#xe906;" glyph-name="benzina" d="M478.242 919.276c9.599 11.632 27.423 11.632 37.022 0v0l20.35-25.433c4.513-5.742 9.211-11.778 14.077-18.091v0l15.075-19.755c36.981-48.922 73.961-101.131 108.512-154.517 32.897-50.83 61.9-100.171 85.951-147.139 47.788-93.321 74.277-173.511 74.277-237.842 0-186.020-150.739-336.772-336.753-336.772s-336.753 150.751-336.753 336.772c0 64.331 26.49 144.521 74.277 237.842 24.051 46.968 53.054 96.308 85.951 147.139 34.551 53.386 71.531 105.595 108.512 154.517 7.768 10.276 15.205 19.967 22.246 29.014v0l13.533 17.221zM496.76 865.634l-14.937-19.197-14.793-19.384c-36.321-48.049-72.642-99.328-106.506-151.652-32.072-49.556-60.273-97.532-83.524-142.937-44.618-87.131-69.001-160.945-69.001-215.964 0-159.512 129.249-288.772 288.753-288.772s288.753 129.26 288.753 288.772c0 55.019-24.384 128.833-69.001 215.964-23.251 45.405-51.452 93.381-83.524 142.937-33.864 52.324-70.185 103.603-106.506 151.652-5.084 6.725-10.021 13.192-14.793 19.384v0l-14.922 19.197zM500.323 716.725c10.478-8.118 12.391-23.193 4.273-33.671l-7.521-9.978c-4.575-6.162-9.549-12.993-14.847-20.426l-5.403-7.631c-20.989-29.836-41.98-61.874-61.541-94.799-21.573-36.312-40.049-71.467-54.472-104.532-21.545-49.392-33.135-92.125-33.135-125.61 0-74.135 28.068-124.385 75.312-157.105 16.685-11.556 34.682-20.069 52.67-25.946 10.637-3.475 18.671-5.26 22.726-5.843 13.12-1.886 22.227-14.050 20.341-27.17s-14.050-22.227-27.17-20.341c-24.775 3.561-60.247 15.149-95.897 39.84-59.815 41.427-95.982 106.176-95.982 196.565 0 41.272 13.187 89.891 37.139 144.801 15.296 35.066 34.676 71.942 57.202 109.857 20.24 34.069 41.893 67.116 63.548 97.9l10.953 15.37 18.134 24.447c8.118 10.478 23.193 12.391 33.671 4.273z" />
<glyph unicode="&#xe907;" glyph-name="car_berlina2vol" d="M255.899 421.505c34.924 0 63.225-28.72 63.217-64.148 0-1.866-0.13-3.667-0.275-5.484-2.745-32.88-29.847-58.714-62.942-58.714-32.204 0-58.731 24.477-62.642 56.107-0.34 2.647-0.559 5.328-0.559 8.074 0 35.453 28.301 64.165 63.201 64.165zM787.976 421.505c34.924 0 63.225-28.72 63.209-64.148 0-1.866-0.13-3.667-0.275-5.484-2.737-32.88-29.847-58.714-62.942-58.714-32.196 0-58.731 24.477-62.634 56.107-0.34 2.647-0.559 5.328-0.559 8.074 0 35.453 28.301 64.165 63.201 64.165zM244.96 338.232l-12.851-13.048c5.263-4.037 11.49-6.759 18.333-7.72v0 18.524c-1.935 0.51-3.798 1.242-5.482 2.245v0zM266.871 338.249c-1.692-1.011-3.539-1.743-5.482-2.261v0-18.516c6.834 0.97 13.069 3.7 18.341 7.712v0zM777.036 338.232l-12.851-13.048c5.263-4.037 11.49-6.759 18.333-7.72v0 18.524c-1.935 0.51-3.798 1.242-5.482 2.245v0zM798.94 338.249c-1.692-1.011-3.547-1.743-5.482-2.261v0-18.516c6.85 0.97 13.069 3.7 18.341 7.712v0zM295.132 351.684h-18.163c-0.518-1.99-1.352-3.84-2.356-5.558v0l12.964-13.18c3.984 5.344 6.583 11.774 7.555 18.738v0zM827.2 351.684h-18.163c-0.518-1.99-1.352-3.84-2.356-5.558v0l12.964-13.18c4 5.344 6.583 11.774 7.555 18.738v0zM234.919 351.675h-18.3c0.964-6.956 3.676-13.344 7.66-18.68v0l12.924 13.114c-1.004 1.71-1.765 3.601-2.283 5.566v0zM766.995 351.675h-18.3c0.964-6.956 3.684-13.344 7.66-18.672v0l12.924 13.106c-1.004 1.71-1.765 3.601-2.283 5.566v0zM487.625 589.835c131.106 35.766 296.748 9.431 350.134-0.756 10.154-1.932 17.571-10.796 17.79-21.287v0-0.025l44.9-50.492c6.437-7.235 9.992-16.641 9.984-26.401v0l-0.024-37.172 12.146-11.782c3.644-3.544 5.612-8.46 5.433-13.542v0l-0.437-11.503c-0.98-26.294-15.507-50.146-38.244-62.783v0l-21.798-12.128-5.231 0.008c0.583 2.886 1.069 5.829 1.312 8.83 0.178 2.179 0.324 4.333 0.324 6.561 0 42.5-34.058 77.073-75.922 77.073-41.856 0-75.914-34.574-75.914-77.073 0-3.067 0.219-6.257 0.656-9.677 0.227-1.834 0.575-3.618 0.923-5.41v0l-383.196 0.789c0.478 2.532 0.842 5.114 1.061 7.737 0.178 2.179 0.324 4.333 0.324 6.561 0 42.5-34.058 77.073-75.922 77.073-41.856 0-75.914-34.574-75.914-77.073 0-3.067 0.219-6.257 0.656-9.677 0.089-0.756 0.259-1.472 0.372-2.204v0l-13.223 3.026c-25.191 5.764-42.099 29.599-39.564 55.704 1.814 18.68 6.818 39.416 18.754 55.203 34.268 45.353 177.27 63.852 177.27 63.852s82.351 44.473 163.35 66.566zM224.246 381.521c-3.976-5.369-6.624-11.741-7.571-18.746v0h18.179c0.502 2.023 1.287 3.897 2.292 5.649v0zM756.315 381.521c-3.976-5.369-6.616-11.741-7.563-18.746v0h18.179c0.494 2.023 1.287 3.897 2.292 5.649v0zM287.577 381.538l-12.899-13.098c1.004-1.751 1.781-3.642 2.292-5.649v0l18.179 0.016c-0.947 6.981-3.579 13.361-7.571 18.73v0zM819.661 381.538l-12.899-13.098c1.004-1.751 1.781-3.642 2.292-5.649v0l18.187 0.016c-0.956 6.981-3.587 13.361-7.579 18.73v0zM250.442 397.151c-6.891-0.97-13.175-3.675-18.462-7.753v0l12.875-13.081c1.733 1.044 3.595 1.858 5.587 2.368v0zM261.389 397.151v-18.467c1.992-0.51 3.854-1.324 5.587-2.368v0l12.875 13.073c-5.288 4.086-11.563 6.791-18.462 7.762v0zM782.518 397.151c-6.883-0.97-13.175-3.675-18.462-7.753v0l12.883-13.081c1.725 1.044 3.587 1.858 5.579 2.368v0zM793.458 397.151v-18.467c1.984-0.51 3.846-1.324 5.579-2.368v0l12.875 13.073c-5.28 4.086-11.555 6.791-18.454 7.762v0zM642.772 583.841c-148.548 5.131-237.304-42.015-237.304-42.015v0l-5.863-23.786c6.535-8.469 5.255-23.548 5.255-23.548v0l237.912 19.059zM668.951 582.361v-66.722l111.866 8.962 14.608 17.488c2.891 3.453 3.798 8.189 2.405 12.498-1.385 4.308-4.867 7.581-9.207 8.641-42.908 10.524-82.886 16.419-119.672 19.133v0z" />
<glyph unicode="&#xe908;" glyph-name="car_berlina3vol" d="M199.577 434.399c40.014 0 72.441-32.866 72.432-73.411 0-2.114-0.136-4.208-0.301-6.263-3.153-37.615-34.232-67.148-72.141-67.148-36.909 0-67.3 27.99-71.791 64.179-0.388 3.018-0.64 6.095-0.64 9.222 0 40.554 32.438 73.42 72.441 73.42zM801.080 434.399c40.014 0 72.451-32.866 72.432-73.411 0-2.114-0.136-4.208-0.301-6.263-3.162-37.615-34.242-67.148-72.15-67.148-36.9 0-67.291 27.99-71.782 64.179-0.388 3.018-0.64 6.095-0.64 9.222 0 40.554 32.438 73.42 72.441 73.42zM187.025 339.143l-14.725-14.934c6.034-4.611 13.163-7.727 21.011-8.838v0 21.187c-2.221 0.59-4.346 1.435-6.286 2.586v0zM212.129 339.143c-1.94-1.16-4.045-1.996-6.276-2.595v0-21.157c7.838 1.111 14.977 4.208 21.011 8.819v0zM788.528 339.143l-14.725-14.934c6.034-4.611 13.163-7.727 21.011-8.838v0 21.187c-2.221 0.59-4.346 1.435-6.286 2.586v0zM813.642 339.143c-1.94-1.16-4.045-1.996-6.276-2.595v0-21.157c7.828 1.111 14.977 4.208 21.011 8.819v0zM244.509 354.499h-20.817c-0.592-2.261-1.533-4.375-2.697-6.351v0l14.851-15.071c4.598 6.125 7.556 13.479 8.662 21.422v0zM846.011 354.49h-20.817c-0.582-2.271-1.533-4.375-2.697-6.361v0l14.851-15.052c4.608 6.125 7.556 13.479 8.662 21.413v0zM175.521 354.509h-20.982c1.135-7.973 4.22-15.268 8.808-21.363v0l14.803 14.993c-1.164 1.966-2.037 4.109-2.629 6.371v0zM777.033 354.509h-20.982c1.116-7.973 4.21-15.268 8.818-21.363v0l14.793 14.993c-1.164 1.966-2.037 4.109-2.629 6.371v0zM435.613 610.605c134.882 47.387 332.321 24.148 365.020 20.439s64.933-6.632 88.272-13.927c16.277-5.083 68.457-48.563 71.336-72.893 0.355-2.999 14.783-8.75 14.783-17.49v0-54.328c0 0 16.976-12.486 16.976-40.485 0-41.98-28.276-57.238-28.276-57.238v0l-73.829-14.088-1.843-0.157c0.010 0.177 0.029 0.334 0.029 0.521 0 48.626-39.024 88.167-87.001 88.167s-86.992-39.551-86.992-88.167c0-3.47 0.243-7.108 0.757-11.060 0.146-1.15 0.398-2.271 0.592-3.402v0l-431.816-8.809c1.174 5.102 2.144 10.402 2.6 15.858 0.184 2.438 0.349 4.916 0.349 7.413 0 48.626-39.014 88.177-86.992 88.177s-86.992-39.561-86.992-88.177c0-3.461 0.243-7.088 0.757-11.060 0.233-1.858 0.601-3.667 0.941-5.506-29.663 3.441-55.32 8.573-68.649 16.212-13.076 21.56-14.803 52.519-13.076 58.988s4.666 18.837 14.036 44.329c9.37 25.483 185.362 62.665 203.142 63.058 60.374 25.866 163.051 75.613 185.876 83.625zM163.318 388.644c-4.598-6.145-7.615-13.439-8.682-21.422v0h20.817c0.582 2.301 1.484 4.454 2.629 6.449v0zM235.876 388.644l-14.783-14.973c1.145-1.996 2.037-4.149 2.629-6.449v-0.010h20.826c-1.086 7.993-4.103 15.288-8.672 21.432v0zM764.82 388.644c-4.598-6.145-7.615-13.439-8.691-21.422v0h20.817c0.582 2.301 1.484 4.454 2.629 6.449v0zM837.368 388.644l-14.773-14.973c1.154-1.996 2.037-4.149 2.629-6.449v-0.010h20.826c-1.096 7.993-4.103 15.288-8.682 21.432v0zM193.311 406.517c-7.896-1.111-15.094-4.198-21.156-8.868v0l14.754-14.953c1.989 1.19 4.123 2.094 6.402 2.704v0zM205.853 406.537l0.010-21.128c2.27-0.61 4.423-1.514 6.402-2.704v0l14.744 14.953c-6.053 4.66-13.26 7.767-21.156 8.878v0zM794.813 406.517c-7.906-1.111-15.094-4.198-21.156-8.868v0l14.754-14.953c1.989 1.19 4.123 2.094 6.402 2.704v0zM807.365 406.537v-21.128c2.27-0.59 4.423-1.514 6.402-2.704v0l14.754 14.953c-6.053 4.66-13.26 7.767-21.156 8.878v0zM567.381 609.868c0 0-129.207-1.996-193.316-60.974 0 0 14.308-5.496 11.34-29.986v0l161.267 5.004zM724.016 604.489c-14.178 1.003-54.045 6.372-129.998 5.37v0l-13.318-83.468 146.959 5.004 7.401 26.987zM740.474 603.593l29.090-71.687h138.224c1.785 9.979 5.006 22.785 0 28.486-22.947 26.134-29.949 28.494-167.314 43.201v0z" />
<glyph unicode="&#xe909;" glyph-name="car_cabriolet" d="M185.394 434.516c41.494 0 75.112-32.179 75.112-71.93 0-2.069-0.155-4.098-0.331-6.137-3.286-36.851-35.479-65.793-74.792-65.793-38.249 0-69.78 27.447-74.43 62.893-0.393 2.96-0.661 5.949-0.661 9.037 0 39.751 33.629 71.93 75.102 71.93zM796.411 434.516c41.504 0 75.133-32.179 75.092-71.94 0-2.069-0.155-4.098-0.32-6.127-3.276-36.851-35.458-65.793-74.792-65.793-38.238 0-69.78 27.447-74.43 62.893-0.382 2.96-0.641 5.949-0.641 9.037 0 39.751 33.619 71.93 75.092 71.93zM172.383 341.197l-15.264-14.639c6.242-4.523 13.662-7.582 21.785-8.661v0l0.010 20.776c-2.315 0.584-4.527 1.396-6.532 2.524v0zM198.416 341.217c-2.005-1.118-4.196-1.95-6.532-2.534v0-20.766c8.144 1.089 15.564 4.137 21.816 8.661v0zM783.42 341.197l-15.275-14.639c6.242-4.523 13.652-7.582 21.775-8.661v0l0.021 20.776c-2.315 0.584-4.516 1.396-6.521 2.524v0zM809.453 341.217c-2.026-1.118-4.206-1.95-6.552-2.534v0-20.766c8.154 1.089 15.574 4.137 21.837 8.661v0zM467.527 574.662c5.653 2.079 11.978 1.722 17.342-0.98v0l7.916-3.999c4.051-2.029 6.542-6.097 6.449-10.472-0.114-4.375-2.78-8.324-6.914-10.195v0l-67.661-30.654c0 0 7.844-7.216 4.258-18.698v0l163.288 7.117v23.429c0 6.76 5.622 12.274 12.67 12.462v0l7.203 0.188c6.811 0.178 12.608-4.702 13.301-11.185v0l2.232-20.756 108.762 7.79 4.692 14.115c2.687 8.017 11.616 12.462 20.008 9.938v0l59.125-17.777c0 0 102.303-3.534 188.081-74.464 12.515-10.344 18.189-26.458 14.717-41.958-5.57-25.052-17.993-48.234-35.975-67.188v0l-7.079-7.463-105.713-3.979c4.372 8.671 7.214 18.183 8.123 28.249 0.176 2.267 0.341 4.593 0.341 6.919 0 45.244-38.445 82.065-85.716 82.065-47.24 0-85.695-36.821-85.695-82.065 0-3.514 0.3-6.939 0.744-10.324 1.457-11.056 5.25-21.36 10.789-30.565v0l-6.304-0.218-459.562-4.424c7.927 11.215 13.104 24.379 14.376 38.613 0.176 2.267 0.351 4.593 0.351 6.919 0 45.244-38.455 82.065-85.716 82.065s-85.695-36.821-85.695-82.065c0-3.514 0.3-6.939 0.744-10.324 1.778-13.551 7.038-25.983 14.779-36.564v0l-1.53-0.010-48.501 7.562c-35.169 5.474-61.987 33.089-65.181 67.089-2.191 23.439 0.661 46.026 30.27 64.298 29.599 18.262 152.653 38.88 263.4 46.323 74.957 34.406 148.354 62.032 173.281 71.187zM231.993 356.242h-21.579c-0.62-2.237-1.612-4.296-2.801-6.226v0l15.399-14.768c4.754 5.998 7.834 13.194 8.981 20.994v0zM843.031 356.242h-21.589c-0.61-2.237-1.612-4.296-2.801-6.226v0l15.409-14.768c4.744 5.998 7.823 13.194 8.981 20.994v0zM771.504 356.242h-21.744c1.126-7.8 4.361-14.946 9.126-20.954v0l15.347 14.728c-1.219 1.891-2.088 4.009-2.728 6.226v0zM160.477 356.242h-21.744c1.126-7.8 4.372-14.946 9.126-20.944v0l15.337 14.719c-1.209 1.891-2.098 4.009-2.718 6.226v0zM147.776 389.698c-4.723-6.028-7.865-13.165-8.981-21.004v0h21.599c0.599 2.267 1.509 4.375 2.708 6.345v0zM223.023 389.698l-15.326-14.669c1.209-1.99 2.108-4.078 2.718-6.345v0l21.599 0.010c-1.106 7.849-4.248 14.986-8.991 21.004v0zM758.803 389.698c-4.733-6.028-7.865-13.165-8.981-21.004v0h21.579c0.62 2.267 1.53 4.375 2.728 6.345v0zM834.039 389.688l-15.316-14.659c1.199-1.99 2.108-4.078 2.708-6.345v0h21.589c-1.106 7.849-4.248 14.986-8.981 21.004v0zM178.904 407.197c-8.195-1.089-15.667-4.128-21.941-8.7v0l15.285-14.639c2.067 1.178 4.289 2.069 6.656 2.663v0zM789.921 407.197c-8.185-1.089-15.667-4.128-21.93-8.7v0l15.285-14.639c2.077 1.178 4.279 2.069 6.645 2.663v0zM191.884 407.217v-20.677c2.387-0.594 4.599-1.505 6.666-2.663v0l15.285 14.639c-6.273 4.573-13.745 7.612-21.951 8.7v0zM802.901 407.217v-20.677c2.387-0.594 4.609-1.505 6.676-2.663v0l15.285 14.639c-6.273 4.573-13.745 7.612-21.961 8.7v0z" />
<glyph unicode="&#xe90a;" glyph-name="car_citycar" d="M284.597 434.129c39.865 0 72.147-31.503 72.147-70.38 0-2.031-0.146-4.023-0.316-6.014-3.135-36.047-34.065-64.373-71.831-64.373-36.746 0-67.028 26.84-71.491 61.528-0.397 2.901-0.64 5.841-0.64 8.844 0 38.869 32.299 70.372 72.131 70.396zM818.679 434.129c39.857 0 72.139-31.503 72.139-70.38 0-2.031-0.138-4.023-0.308-6.014-3.135-36.047-34.065-64.373-71.831-64.373-36.754 0-67.036 26.84-71.499 61.528-0.389 2.901-0.64 5.841-0.64 8.844 0 38.869 32.307 70.372 72.139 70.396zM272.097 342.806l-14.663-14.313c6.003-4.434 13.115-7.429 20.925-8.465v0 20.304c-2.212 0.561-4.334 1.359-6.262 2.474v0zM806.179 342.806l-14.671-14.313c6.003-4.434 13.124-7.429 20.925-8.465v0 20.304c-2.203 0.561-4.334 1.359-6.254 2.474v0zM297.113 342.813c-1.928-1.099-4.034-1.928-6.254-2.49v0-20.288c7.809 1.043 14.922 4.023 20.925 8.457v0zM831.186 342.813c-1.928-1.099-4.034-1.928-6.254-2.49v0-20.288c7.809 1.043 14.922 4.023 20.925 8.457v0zM329.363 357.522h-20.73c-0.591-2.189-1.531-4.197-2.681-6.094v0l14.792-14.447c4.561 5.864 7.51 12.922 8.619 20.541v0zM863.428 357.522h-20.73c-0.591-2.189-1.531-4.197-2.681-6.094v0l14.792-14.447c4.561 5.864 7.518 12.922 8.619 20.541v0zM260.658 357.514h-20.892c1.102-7.619 4.196-14.621 8.757-20.486v0l14.736 14.384c-1.134 1.881-2.017 3.936-2.6 6.101v0zM794.724 357.514h-20.892c1.11-7.619 4.196-14.621 8.757-20.486v0l14.736 14.384c-1.134 1.881-2.009 3.936-2.6 6.101v0zM498.892 607.656c37.88 0.601 198.231 0.269 267.981 0.087 24.627-0.063 39.014-5.082 57.306-21.173 40.027-35.194 66.614-70.49 70.033-76.9 13.441-25.159 14.86-49.621 14.959-57.076l-0.013-2.302c0 0 12.581-8.101 17.498-28.010 6.303-25.536-11.617-81.737-11.617-81.737v0h-10.515c1.45 5.082 2.455 10.338 2.933 15.759 0.203 2.466 0.373 4.932 0.373 7.413 0 47.942-39.995 86.961-89.135 86.961s-89.127-39.019-89.127-86.961c0-3.414 0.251-6.995 0.77-10.962 0.543-4.173 1.458-8.227 2.592-12.195v0h-362.487c1.45 5.074 2.455 10.33 2.924 15.744 0.211 2.466 0.381 4.924 0.381 7.413 0 47.95-39.995 86.961-89.143 86.961-49.132 0-89.127-39.011-89.127-86.961 0-3.406 0.259-7.002 0.778-10.954 0.535-4.181 1.458-8.243 2.584-12.211v0h-41.437c-10.215 0-18.989 7.137-20.844 16.937v0l-8.206 43.303c-1.685 8.923 2.771 17.862 11.009 22.074 0 0 0.211 11.918 1.62 22.691 1.077 8.283 5.533 15.799 12.346 20.865 50.493 37.549 133.772 44.22 180.077 46.085 7.883 0.314 29.106 0.459 35.45 0.496l1.815 0.010 70.754 67.574h-1.426c-2.519 0-4.723 1.66-5.355 4.039s0.494 4.813 2.665 6.070c21.897 12.732 36.382 16.558 61.584 16.961zM320.752 390.258l-14.719-14.36c1.134-1.913 2.041-3.983 2.617-6.188v0h20.739c-1.077 7.666-4.083 14.661-8.636 20.549v0zM248.475 390.265c-4.553-5.896-7.566-12.89-8.628-20.549v0h20.739c0.567 2.205 1.458 4.276 2.609 6.188v0zM854.825 390.258l-14.719-14.36c1.142-1.913 2.041-3.983 2.617-6.188v0h20.73c-1.069 7.666-4.083 14.661-8.628 20.549v0zM782.548 390.265c-4.553-5.896-7.566-12.89-8.636-20.549v0h20.747c0.559 2.205 1.45 4.276 2.6 6.188v0zM278.375 407.384c-7.866-1.067-15.044-4.031-21.079-8.504v0l14.695-14.337c1.977 1.13 4.099 2.015 6.375 2.592v0zM812.457 407.376c-7.866-1.067-15.035-4.031-21.079-8.504v0l14.687-14.329c1.977 1.13 4.099 2.015 6.375 2.592v0zM290.867 407.4v-20.256c2.276-0.577 4.399-1.454 6.375-2.592v0l14.687 14.329c-6.035 4.489-13.205 7.453-21.071 8.52h0.008zM824.941 407.4v-20.256c2.276-0.577 4.399-1.454 6.375-2.592v0l14.695 14.329c-6.043 4.489-13.205 7.453-21.079 8.52h0.008zM636.52 580.603h-158.69l-70.227-67.068 25.145 0.348c-0.122 0.964-0.259 1.928-0.259 2.932 0 10.986 8.044 19.893 17.992 19.893 9.932 0 17.984-8.907 17.984-19.893 0-0.838-0.122-1.628-0.211-2.442v0l168.266 2.308v63.923zM675.469 580.595h-4.958v-63.464l4.958 0.071v63.393zM782.556 580.595h-73.103l0.008-62.927 128.652 1.77c3.321 0.047 6.327 1.913 7.769 4.829 1.458 2.908 1.102 6.37-0.924 8.939-9.98 12.661-23.388 27.030-40.505 40.054-6.27 4.766-13.958 7.334-21.897 7.334v0z" />
<glyph unicode="&#xe90b;" glyph-name="car_coupe" d="M809.991 460.076c42.287 0 76.547-32.8 76.526-73.296 0-2.112-0.134-4.184-0.33-6.256-3.318-37.546-36.135-67.040-76.207-67.040-39 0-71.127 27.965-75.867 64.080-0.402 3.029-0.659 6.088-0.659 9.216 0 40.496 34.26 73.296 76.537 73.296zM175.175 460.717c42.472 0 76.887-32.938 76.877-73.582 0-2.131-0.134-4.213-0.33-6.295-3.338-37.704-36.3-67.326-76.547-67.326-39.165 0-71.426 28.063-76.186 64.346-0.412 3.029-0.68 6.108-0.68 9.256 0 40.664 34.415 73.602 76.866 73.602zM796.741 364.983l-15.559-14.9c6.378-4.608 13.9-7.736 22.194-8.841h0.010v21.176c-2.349 0.582-4.606 1.431-6.646 2.566v0zM823.273 365.002c-2.050-1.145-4.286-2.003-6.646-2.585v0-21.166c8.305 1.115 15.837 4.233 22.215 8.831v0zM161.863 365.2l-15.631-14.979c6.399-4.608 13.962-7.746 22.297-8.841v0 21.235c-2.36 0.602-4.616 1.441-6.667 2.585v0zM188.488 365.219c-2.050-1.164-4.297-2.003-6.656-2.605v0-21.225c8.336 1.095 15.909 4.233 22.308 8.831v0zM448.36 583.568c158.246 56.235 344.847 4.638 445.762-46.683 28.871-1.016 59.113-3.207 76.918-4.648 9.593-0.77 17.918-6.779 21.329-15.413v0l18.104-45.736 4.142-5.921c5.677-8.072 8.82-17.525 9.088-27.225v0l0.278-11.9c0.268-9.453-2.226-18.798-7.161-26.988v0l-7.161-11.831c-6.316-10.46-17.352-17.515-29.86-19.104v0l-71.91-9.108-10.438-0.602c2.37 6.631 4.029 13.578 4.668 20.82 0.216 2.496 0.392 4.983 0.392 7.539 0 48.864-41.493 88.591-92.507 88.591s-92.497-39.746-92.497-88.591c0-3.493 0.258-7.144 0.793-11.121 1.247-9.542 4.163-18.531 8.284-26.84v0l-3.761-0.207h-464.134c4.832 9.502 7.965 19.932 8.944 30.935 0.216 2.506 0.392 5.013 0.392 7.578 0 49.002-41.648 88.887-92.837 88.887-51.179 0-92.816-39.875-92.816-88.887 0-3.552 0.268-7.213 0.804-11.17 1.267-9.69 4.225-18.778 8.428-27.185v0l-66.841 7.016c-10.314 1.095-18.712 8.437-20.762 18.176-1.298 6.157-2.617 13.785-3.514 22.36-4.462 42.835 22.236 83.075 64.564 97.531 102.554 35.029 244.473 33.295 257.163 33.065l0.916-0.018c0 0 92.765 45.144 125.232 56.679zM857.471 380.307h-21.988c-0.618-2.279-1.638-4.381-2.844-6.345v0l15.693-15.038c4.843 6.118 7.975 13.449 9.139 21.383v0zM784.572 380.307h-22.153c1.175-7.934 4.462-15.235 9.273-21.353v0l15.651 14.999c-1.226 1.974-2.133 4.095-2.772 6.355v0zM222.872 380.613h-22.091c-0.629-2.289-1.649-4.411-2.864-6.374v0l15.765-15.107c4.863 6.128 8.016 13.499 9.191 21.482v0zM149.653 380.603h-22.256c1.185-7.973 4.472-15.285 9.335-21.413v0l15.703 15.038c-1.236 1.964-2.143 4.115-2.782 6.374v0zM771.661 414.399c-4.832-6.138-8.027-13.39-9.17-21.403v0h22.009c0.618 2.289 1.566 4.45 2.782 6.444v0zM848.342 414.409l-15.621-14.959c1.236-1.993 2.164-4.154 2.782-6.444v0h21.999c-1.144 8.012-4.328 15.265-9.16 21.403v0zM213.681 414.833l-15.682-15.009c1.226-2.003 2.164-4.174 2.792-6.473v0l22.102-0.020c-1.154 8.042-4.359 15.334-9.212 21.501v0zM136.67 414.843c-4.843-6.167-8.047-13.459-9.212-21.482v0h22.102c0.618 2.299 1.566 4.47 2.792 6.473v0zM803.376 432.269c-8.346-1.115-15.95-4.204-22.359-8.851v0l15.6-14.939c2.092 1.184 4.358 2.082 6.759 2.684v0zM816.627 432.269v-21.107c2.411-0.582 4.668-1.5 6.77-2.684v0l15.59 14.93c-6.399 4.638-13.993 7.746-22.359 8.861v0zM168.529 432.782c-8.398-1.115-16.033-4.204-22.473-8.891v0l15.672-15.009c2.112 1.194 4.379 2.092 6.8 2.704v0zM181.832 432.782v-21.195c2.411-0.592 4.688-1.51 6.8-2.704v0l15.662 14.999c-6.44 4.677-14.085 7.785-22.462 8.901v0zM638.825 585.413c-138.967 13.884-228.95-41.7-228.95-41.7 9.201-9.641 7.11-17.623 7.11-17.623v0h351.988l18.433 21.235c-63.616 31.665-110.343 34.26-148.581 38.089z" />
<glyph unicode="&#xe90c;" glyph-name="carSUV-crossover" d="M171.605 407.52c43.651 0 79.017-35.335 79.006-78.965 0-2.275-0.144-4.488-0.34-6.742-3.438-40.491-37.28-72.254-78.677-72.254-40.234 0-73.366 30.127-78.275 69.053-0.412 3.283-0.69 6.556-0.69 9.943 0 43.63 35.386 78.965 78.975 78.965zM778.891 407.52c43.661 0 79.006-35.335 78.986-78.965 0-2.275-0.134-4.488-0.34-6.742-3.438-40.491-37.28-72.254-78.667-72.254-40.234 0-73.376 30.127-78.275 69.053-0.432 3.283-0.7 6.556-0.7 9.943 0 43.63 35.396 78.965 78.996 78.965zM157.936 305.036l-16.067-16.077c6.577-4.961 14.369-8.327 22.901-9.469v0 22.767c-2.408 0.648-4.745 1.544-6.834 2.779v0zM185.325 305.057c-2.131-1.256-4.446-2.151-6.886-2.789v0-22.778c8.574 1.163 16.365 4.518 22.932 9.469v0zM765.212 305.036l-16.077-16.077c6.577-4.961 14.369-8.327 22.911-9.469v0 22.767c-2.398 0.648-4.745 1.544-6.834 2.779v0zM792.611 305.057c-2.131-1.256-4.457-2.151-6.875-2.789v0-22.778c8.563 1.163 16.345 4.518 22.922 9.469v0zM220.608 321.566h-22.685c-0.638-2.45-1.688-4.724-2.923-6.834v0l16.18-16.19c5.013 6.546 8.234 14.461 9.428 23.025v0zM827.894 321.566h-22.685c-0.638-2.45-1.698-4.724-2.933-6.834v0l16.19-16.19c5.002 6.546 8.234 14.461 9.428 23.025v0zM145.41 321.566h-22.891c1.215-8.563 4.611-16.427 9.593-22.983v0l16.17 16.129c-1.287 2.131-2.223 4.446-2.872 6.855v0zM752.686 321.566h-22.891c1.215-8.563 4.611-16.427 9.603-22.983v0l16.149 16.129c-1.287 2.131-2.213 4.446-2.861 6.855v0zM911.237 639.981c11.058-0.123 42.555-1.042 53.58-7.937v0-9.15c0-4.395-3.551-7.966-7.956-7.966v0h-9.274c16.859-58.771 60.13-38.504 60.13-174.069v0l6.999-1.091c5.332-0.844 9.263-5.445 9.284-10.818v0-50.362c0-5.517-4.086-10.179-9.541-10.89v0l-62.363-8.162-4.508-8.975c-1.482-2.985-4.261-5.136-7.503-5.826v0l-61.663-13.092v65.080c0 25.876-20.946 46.821-46.801 46.821v0h-73.088c-29.478 0-53.398-23.93-53.398-53.398v0l-20.585-44.948-6.433 0.648-406.94-6.896-20.585 57.762c0 25.876-20.966 46.821-46.811 46.821v0h-73.067c-29.488 0-53.408-23.93-53.408-53.398v0-55.405l-27.523-0.659c-5.774-0.144-11.106 2.995-13.802 8.1v0l-4.179 7.936c0 0-10.54 3.325-17.117 10.272-6.567 6.948-18.125 39.143-13.699 69.341 4.426 30.209 16.551 56.383 29.962 69.65 26.534 26.257 197.752 33.163 197.752 33.163v0l171.033 101.033c7.123 4.21 15.243 6.433 23.529 6.433v0zM132.051 358.301c-4.982-6.598-8.275-14.441-9.449-23.066v0h22.716c0.597 2.47 1.606 4.786 2.872 6.978v0zM211.191 358.301l-16.098-16.087c1.245-2.192 2.234-4.518 2.83-6.978v0h22.736c-1.173 8.625-4.467 16.437-9.469 23.066v0zM739.337 358.301c-4.992-6.598-8.286-14.441-9.449-23.066v0h22.706c0.597 2.47 1.595 4.786 2.861 6.978v0zM818.477 358.301l-16.087-16.087c1.225-2.192 2.213-4.518 2.82-6.978v0h22.736c-1.173 8.625-4.488 16.437-9.469 23.066v0zM178.439 377.548l-0.010-22.757c2.511-0.618 4.868-1.637 7.020-2.892v0l16.087 16.067c-6.608 5.074-14.451 8.388-23.097 9.582v0zM785.736 377.548l-0.010-22.757c2.501-0.618 4.858-1.637 7.009-2.892v0l16.087 16.067c-6.608 5.074-14.451 8.388-23.086 9.582v0zM164.76 377.558c-8.594-1.204-16.437-4.529-23.035-9.562v0l16.067-16.087c2.182 1.266 4.518 2.264 6.978 2.903v0zM772.026 377.558c-8.605-1.204-16.448-4.529-23.035-9.562v0l16.067-16.087c2.192 1.266 4.539 2.264 6.989 2.903v0zM709.24 614.937h-141.662c-4.679 0-8.465-3.232-8.465-7.225v0-78.173c0-1.945 0.916-3.819 2.556-5.187 1.628-1.359 3.847-2.089 6.126-2.048v0l127.638 2.367c8.441 0.165 16.387 3.438 21.741 8.985 5.354 5.537 7.621 12.814 6.21 19.906v0l-5.716 54.788c-0.386 3.736-4.040 6.587-8.429 6.587v0zM508.908 614.948h-72.418c-6.447 0-12.752-1.42-18.233-4.127v0l-85.582-42.148c0 0 11.362-3.036 17.011-7.503 6.151-4.879 9.187-19.34 3.706-25.443-5.469-6.124-15.917-10.416-15.917-10.416v0h170.173c2.522 0 4.915 0.834 6.627 2.295 1.724 1.472 2.586 3.438 2.419 5.455v0l1.249 74.56c0.037 1.945-0.902 3.798-2.6 5.177s-4.015 2.151-6.434 2.151v0zM910.517 614.937h-159.451c-1.878 0-3.649-1.163-4.731-3.108-1.074-1.945-1.32-4.426-0.656-6.649v0l7.442-62.075c4.092-8.1 11.21-12.989 18.844-12.918v0l176.318 1.668c1 0.010 2.001-1.081 2.509 0 0.517 1.070 0.476 4.148 0 5.27v0l-34.788 72.81c-0.779 2.985-2.977 5.002-5.486 5.002v0z" />
<glyph unicode="&#xe90d;" glyph-name="close" d="M219.15 740.85c11.535 11.535 29.687 12.423 42.24 2.662l3.015-2.662 586.936-586.936c12.497-12.497 12.497-32.758 0-45.255-11.535-11.535-29.687-12.423-42.24-2.662l-3.015 2.662-586.936 586.936c-12.497 12.497-12.497 32.758 0 45.255zM851.341 740.85c-11.535 11.535-29.687 12.423-42.24 2.662l-3.015-2.662-586.936-586.936c-12.497-12.497-12.497-32.758 0-45.255 11.535-11.535 29.687-12.423 42.24-2.662l3.015 2.662 586.936 586.936c12.497 12.497 12.497 32.758 0 45.255z" />
<glyph unicode="&#xe90e;" glyph-name="comment" d="M672 576c53.019 0 96-42.981 96-96v-96c0-53.019-42.981-96-96-96h-189.856l-60.879-77.397c-10.93-13.888-31.049-16.286-44.937-5.356-5.019 3.95-8.742 9.312-10.688 15.396l-21.668 67.688c-49.263 4.078-87.972 45.353-87.972 95.669v96c0 53.019 42.981 96 96 96h320z" />
<glyph unicode="&#xe90f;" glyph-name="comment-outline" d="M512 960c282.77 0 512-229.23 512-512s-229.23-512-512-512c-282.77 0-512 229.23-512 512s229.23 512 512 512zM672 576h-320c-53.019 0-96-42.981-96-96v0-96c0-50.316 38.709-91.591 87.972-95.669v0l21.668-67.688c1.946-6.084 5.669-11.445 10.688-15.396 13.888-10.93 34.007-8.532 44.937 5.356v0l60.879 77.397h189.856c53.019 0 96 42.981 96 96v0 96c0 53.019-42.981 96-96 96v0z" />
<glyph unicode="&#xe910;" glyph-name="compare" d="M448 752v-85.312l-104.366-0.021c-36.015 0-68.895-19.848-83.717-49.953l-2.425-5.417-20.739-51.296 211.247 0.032-0.032-234.688-199.968-0.011v-53.333c0-16.495-13.455-30.075-30.741-31.812l-3.759-0.188h-69c-17.784 0-32.425 12.48-34.298 28.513l-0.202 3.487v82.255c-12.874 13.536-21.205 30.878-22.742 49.982l-0.258 6.43v64c0 30.004 16.705 56.376 41.949 71.588l5.16 2.892 0.075 0.187h-41.422c-6.364 0-12.116 3.238-15.108 8.277l-1.256 2.663-11.5 32c-3.413 9.498 3.288 19.279 13.498 20.843l2.867 0.217h78.797l11.29 27.925c13.214 32.684 36.547 60.468 67.479 80.351 28.353 18.225 61.168 28.574 95.428 30.172l9.377 0.218h104.366zM190.5 485.333c-25.405 0-46-19.103-46-42.667s20.595-42.667 46-42.667c25.405 0 69-2.231 69 21.333s-43.595 64-69 64zM712.38 688c37.632 0 73.875-10.508 104.805-30.391s54.266-47.667 67.479-80.351v0l11.29-27.925h78.797c11.775 0 20.088-10.699 16.365-21.060v0l-11.5-32c-2.348-6.533-8.94-10.94-16.364-10.94v0h-41.422c28.178-14.791 47.185-42.663 47.185-74.667v0-64c0-21.632-8.695-41.371-23-56.412v0-82.255c0-17.673-15.446-32-34.5-32v0h-69c-19.054 0-34.5 14.327-34.5 32v0 53.333l-168.014 0.011v234.688l179.261-0.032-20.739 51.296c-13.39 33.119-48.008 55.371-86.142 55.371v0l-72.38 0.021v85.312zM865.514 421.333c-25.405 0-69-40.436-69-64s43.595-21.333 69-21.333c25.405 0 46 19.103 46 42.667s-20.595 42.667-46 42.667zM544 800c16.411 0 29.936-12.353 31.785-28.268l0.215-3.732v-608c0-17.673-14.327-32-32-32-16.411 0-29.936 12.353-31.785 28.268l-0.215 3.732v608c0 17.673 14.327 32 32 32z" />
<glyph unicode="&#xe911;" glyph-name="monovolume-3" d="M198.4 435.2c41.6 0 73.6-32 73.6-73.6 0-3.2 0-3.2 0-6.4-3.2-38.4-35.2-67.2-73.6-67.2s-67.2 28.8-70.4 64c0 3.2 0 6.4 0 9.6 0 38.4 32 73.6 70.4 73.6zM800 435.2c41.6 0 73.6-32 73.6-73.6 0-3.2 0-3.2 0-6.4-3.2-38.4-35.2-67.2-73.6-67.2s-67.2 28.8-70.4 64c0 3.2 0 6.4 0 9.6 0 38.4 32 73.6 70.4 73.6zM185.6 339.2l-16-16c9.6-3.2 16-6.4 22.4-6.4v0 22.4c0-3.2-3.2 0-6.4 0v0zM211.2 339.2c-3.2 0-3.2-3.2-6.4-3.2v0-22.4c6.4 0 16 3.2 22.4 9.6v0l-16 16zM787.2 339.2l-16-16c6.4-3.2 12.8-6.4 22.4-9.6v0 22.4c0 0-3.2 3.2-6.4 3.2v0zM812.8 339.2c-3.2 0-3.2-3.2-6.4-3.2v0-22.4c6.4 0 16 3.2 22.4 9.6v0l-16 16zM243.2 355.2h-19.2c0-3.2 0-3.2-3.2-6.4v0l16-16c3.2 6.4 6.4 12.8 6.4 22.4v0zM844.8 355.2h-22.4c0-3.2 0-3.2-3.2-6.4v0l16-16c6.4 6.4 9.6 12.8 9.6 22.4v0zM176 355.2h-22.4c0-6.4 3.2-16 9.6-22.4v0l16 16c-3.2 0-3.2 3.2-3.2 6.4v0zM777.6 355.2h-22.4c0-6.4 3.2-16 9.6-22.4v0l16 16c-3.2 0-3.2 3.2-3.2 6.4v0zM435.2 611.2c134.4 48 332.8 22.4 364.8 19.2s64-6.4 89.6-12.8c41.6 3.2 67.2-48 70.4-73.6 0-3.2 16-9.6 16-16v0-54.4c0 0 16-12.8 16-41.6 0-41.6-28.8-57.6-28.8-57.6v0l-73.6-12.8h-3.2c0 48-38.4 89.6-86.4 89.6s-86.4-38.4-86.4-89.6c0-3.2 0-6.4 0-9.6v-3.2l-428.8-9.6c0 6.4 3.2 9.6 3.2 16 0 3.2 0 6.4 0 6.4 0 48-41.6 86.4-89.6 86.4s-86.4-38.4-86.4-89.6c0-3.2 0-6.4 0-9.6s0-3.2 0-6.4c-28.8 3.2-54.4 9.6-67.2 16-12.8 22.4-12.8 54.4-12.8 60.8 3.2 6.4 3.2 19.2 12.8 44.8s185.6 64 201.6 64c64 25.6 166.4 73.6 188.8 83.2zM163.2 387.2c-3.2-3.2-6.4-12.8-9.6-19.2v0h22.4c0 3.2 0 3.2 3.2 6.4v0l-16 12.8zM236.8 387.2l-16-16c0-3.2 3.2-3.2 3.2-6.4v0h22.4c-3.2 9.6-6.4 19.2-9.6 22.4v0zM764.8 387.2c-3.2-6.4-6.4-12.8-9.6-22.4v0h22.4c0 3.2 0 3.2 3.2 6.4v0l-16 16zM838.4 387.2l-16-16c0-3.2 3.2-3.2 3.2-6.4v0h22.4c-3.2 9.6-6.4 19.2-9.6 22.4v0zM192 406.4c-6.4 0-16-3.2-22.4-9.6v0l16-12.8c3.2 0 6.4 0 6.4 0v0 22.4zM204.8 406.4v-22.4c3.2 0 3.2 0 6.4-3.2v0l16 16c-6.4 6.4-12.8 9.6-22.4 9.6v0zM793.6 406.4c-6.4 0-16-3.2-22.4-9.6v0l16-16c3.2 0 3.2 3.2 6.4 3.2v0 22.4zM806.4 406.4v-22.4c3.2 0 3.2 0 6.4-3.2v0l16 16c-6.4 6.4-12.8 9.6-22.4 9.6v0zM566.4 611.2c0 0-128-3.2-192-60.8 0 0 12.8-6.4 12.8-28.8v0l160 6.4 19.2 83.2zM723.2 604.8c-12.8 0-54.4 6.4-131.2 6.4v0l-12.8-83.2 147.2 6.4 6.4 25.6-9.6 44.8zM739.2 604.8l28.8-70.4h137.6c3.2 9.6 6.4 22.4 0 28.8-19.2 22.4-28.8 25.6-166.4 41.6v0zM579.2 636.8c0 0 137.6 3.2 243.2 3.2 70.4 0 89.6-3.2 115.2-6.4 3.2 0 3.2 0 6.4-3.2 16-16 16-96 16-96l-51.2 64-329.6 38.4z" />
<glyph unicode="&#xe912;" glyph-name="monovolume-2" d="M198.4 435.2c41.6 0 73.6-32 73.6-73.6 0-3.2 0-3.2 0-6.4-3.2-38.4-35.2-67.2-73.6-67.2s-67.2 28.8-70.4 64c0 3.2 0 6.4 0 9.6 0 38.4 32 73.6 70.4 73.6zM800 435.2c41.6 0 73.6-32 73.6-73.6 0-3.2 0-3.2 0-6.4-3.2-38.4-35.2-67.2-73.6-67.2s-67.2 28.8-70.4 64c0 3.2 0 6.4 0 9.6 0 38.4 32 73.6 70.4 73.6zM185.6 339.2l-16-16c9.6-3.2 16-6.4 22.4-6.4v0 22.4c0-3.2-3.2 0-6.4 0v0zM211.2 339.2c-3.2 0-3.2-3.2-6.4-3.2v0-22.4c6.4 0 16 3.2 22.4 9.6v0l-16 16zM787.2 339.2l-16-16c6.4-3.2 12.8-6.4 22.4-9.6v0 22.4c0 0-3.2 3.2-6.4 3.2v0zM812.8 339.2c-3.2 0-3.2-3.2-6.4-3.2v0-22.4c6.4 0 16 3.2 22.4 9.6v0l-16 16zM243.2 355.2h-19.2c0-3.2 0-3.2-3.2-6.4v0l16-16c3.2 6.4 6.4 12.8 6.4 22.4v0zM844.8 355.2h-22.4c0-3.2 0-3.2-3.2-6.4v0l16-16c6.4 6.4 9.6 12.8 9.6 22.4v0zM176 355.2h-22.4c0-6.4 3.2-16 9.6-22.4v0l16 16c-3.2 0-3.2 3.2-3.2 6.4v0zM777.6 355.2h-22.4c0-6.4 3.2-16 9.6-22.4v0l16 16c-3.2 0-3.2 3.2-3.2 6.4v0zM435.2 611.2c134.4 48 332.8 22.4 364.8 19.2s64-6.4 89.6-12.8c41.6 3.2 67.2-48 70.4-73.6 0-3.2 16-9.6 16-16v0-54.4c0 0 16-12.8 16-41.6 0-41.6-28.8-57.6-28.8-57.6v0l-73.6-12.8h-3.2c0 0 0 0 0 0 0 48-38.4 89.6-86.4 89.6s-86.4-38.4-86.4-89.6c0-3.2 0-6.4 0-9.6 0 0 0-3.2 0-3.2v0l-428.8-9.6c0 6.4 3.2 9.6 3.2 16 0 3.2 0 6.4 0 6.4 0 48-41.6 86.4-89.6 86.4s-86.4-38.4-86.4-89.6c0-3.2 0-6.4 0-9.6s0-3.2 0-6.4c-28.8 3.2-54.4 9.6-67.2 16-12.8 22.4-12.8 54.4-12.8 60.8 3.2 6.4 3.2 19.2 12.8 44.8s185.6 64 201.6 64c64 25.6 166.4 73.6 188.8 83.2zM163.2 387.2c-3.2-3.2-6.4-12.8-9.6-19.2v0h22.4c0 3.2 0 3.2 3.2 6.4v0l-16 12.8zM236.8 387.2l-16-16c0-3.2 3.2-3.2 3.2-6.4v0h22.4c-3.2 9.6-6.4 19.2-9.6 22.4v0zM764.8 387.2c-3.2-6.4-6.4-12.8-9.6-22.4v0h22.4c0 3.2 0 3.2 3.2 6.4v0l-16 16zM838.4 387.2l-16-16c0-3.2 3.2-3.2 3.2-6.4v0h22.4c-3.2 9.6-6.4 19.2-9.6 22.4v0zM192 406.4c-6.4 0-16-3.2-22.4-9.6v0l16-12.8c3.2 0 6.4 0 6.4 0v0 22.4zM204.8 406.4v-22.4c3.2 0 3.2 0 6.4-3.2v0l16 16c-6.4 6.4-12.8 9.6-22.4 9.6v0zM793.6 406.4c-6.4 0-16-3.2-22.4-9.6v0l16-16c3.2 0 3.2 3.2 6.4 3.2v0 22.4zM806.4 406.4v-22.4c3.2 0 3.2 0 6.4-3.2v0l16 16c-6.4 6.4-12.8 9.6-22.4 9.6v0zM566.4 611.2c0 0-128-3.2-192-60.8 0 0 12.8-6.4 12.8-28.8v0l160 6.4 19.2 83.2zM723.2 604.8c-12.8 0-54.4 6.4-131.2 6.4v0l-12.8-83.2 147.2 6.4 6.4 25.6-9.6 44.8zM739.2 604.8l28.8-70.4h137.6c3.2 9.6 6.4 22.4 0 28.8-19.2 22.4-28.8 25.6-166.4 41.6v0zM579.2 636.8c0 0 118.4 3.2 211.2 3.2 64 0 86.4 3.2 112 0 6.4 0 6.4-38.4 6.4-38.4z" />
<glyph unicode="&#xe913;" glyph-name="check-round" d="M593.26 880.049c26.696-7.050 42.489-33.912 35.275-59.999s-34.704-41.52-61.4-34.47c-197.753 52.221-401.126-63.5-454.21-258.746-53.125-195.403 64.476-396.15 262.39-448.416 197.753-52.221 401.126 63.5 454.21 258.746 7.101 26.117 34.523 41.663 61.249 34.725s42.636-33.735 35.535-59.852c-67.286-247.48-325.654-394.493-577.12-328.088-251.304 66.365-400.29 320.686-333.049 568.011 67.286 247.48 325.654 394.493 577.12 328.088zM1010.11 817.114c18.145-18.675 18.462-48.079 1.25-67.127l-2.243-2.326-491.551-477.77c-12.752-12.395-30.508-16.472-46.552-12.327-9.106 1.328-17.919 5.216-25.266 11.669l-2.357 2.21-205.008 205.041c-19.178 19.181-19.178 50.279 0 69.459 18.41 18.413 47.802 19.15 67.091 2.21l2.357-2.21 173.883-173.909 458.954 446.073c19.45 18.904 50.54 18.46 69.441-0.993z" />
<glyph unicode="&#xe914;" glyph-name="filtro" d="M848 483.2c17.673 0 32-14.327 32-32 0-16.411-12.353-29.936-28.268-31.785l-3.732-0.215h-640c-17.673 0-32 14.327-32 32 0 16.411 12.353 29.936 28.268 31.785l3.732 0.215h640zM848 675.2c17.673 0 32-14.327 32-32 0-16.411-12.353-29.936-28.268-31.785l-3.732-0.215h-640c-17.673 0-32 14.327-32 32 0 16.411 12.353 29.936 28.268 31.785l3.732 0.215h640zM224 736c-53.019 0-96-42.981-96-96s42.981-96 96-96c53.019 0 96 42.981 96 96s-42.981 96-96 96zM512 544c-53.019 0-96-42.981-96-96s42.981-96 96-96c53.019 0 96 42.981 96 96s-42.981 96-96 96zM832 352c-53.019 0-96-42.981-96-96s42.981-96 96-96c53.019 0 96 42.981 96 96s-42.981 96-96 96zM848 291.2c17.673 0 32-14.327 32-32 0-16.411-12.353-29.936-28.268-31.785l-3.732-0.215h-640c-17.673 0-32 14.327-32 32 0 16.411 12.353 29.936 28.268 31.785l3.732 0.215h640z" />
<glyph unicode="&#xe915;" glyph-name="arrow-left-fill" d="M521.347 657.566c53.494 30.835 144.955 8.996 144.955-34.612v0-93.935l197.699 0.005v-163.136l-197.699-0.026v-93.933c0-43.608-91.464-65.446-144.955-34.612v0l-304.475 175.514c-33.162 19.116-33.162 50.105 0 69.221v0z" />
<glyph unicode="&#xe916;" glyph-name="gpl" d="M617.333 768c12.15 0 22.192-9.029 23.781-20.743l0.219-3.257v-66.667c0-12.15-9.029-22.192-20.743-23.781l-3.257-0.219-59.339 0.011-0.011-35.328 145.866-0.016c28.412 0 51.591-22.089 53.952-50.012l0.198-4.705-0.005-111.923h1.984l0.021 59.307c0 12.15 9.029 22.192 20.743 23.781v0l3.257 0.219h66.667c13.255 0 24-10.745 24-24v0-266.667c0-13.255-10.745-24-24-24v0h-66.667c-13.255 0-24 10.745-24 24v0l-0.021 59.36h-1.984l0.005-20.627c0-12.63-4.308-24.827-12.139-34.531v0l-3.57-4.001-122.415-124.664c-10.15-10.359-23.989-16.204-38.443-16.204v0h-214.267c-14.454 0-28.294 5.845-39.469 17.32v0l-71.367 82.707-38.997-0.027c-28.466 0-54.59 24.536-57.131 52.837v0l-0.202 4.497v200c0 29.922 27.412 57.333 57.333 57.333v0l38.997 0.016 72.36 83.764c8.881 9.064 20.612 14.685 33.089 15.948v0l5.387 0.272 76.161 0.016-0.021 35.328-59.307-0.011c-12.15 0-22.192 9.029-23.781 20.743l-0.219 3.257v66.667c0 12.15 9.029 22.192 20.743 23.781l3.257 0.219h233.333zM703.85 570h-336.683c-1.52 0-3.045-0.644-3.162-0.695v0l-78.5-90.983c-4.559-5.284-11.192-8.322-18.171-8.322v0h-50c-3.412 0-9.333-5.922-9.333-9.333v0-200c0-3.565 5.807-9.333 9.333-9.333v0h50c6.978 0 13.61-3.037 18.169-8.32v0l77.507-89.884c1.143-1.167 2.634-1.796 4.157-1.796v0h214.267c1.523 0 3.014 0.63 4.176 1.815v0l122.464 124.715c1.217 1.235 1.927 2.984 1.927 4.87v0 44.6c0 13.255 10.745 24 24 24v0h50c13.255 0 24-10.745 24-24v0l-0.021-59.333h18.656v218.688h-18.656l0.021-59.355c0-12.15-9.029-22.192-20.743-23.781v0l-3.257-0.219h-50c-13.255 0-24 10.745-24 24v0 135.95c0 3.792-2.871 6.717-6.15 6.717v0zM593.323 720h-185.344v-18.656l59.355-0.011c12.15 0 22.192-9.029 23.781-20.743l0.219-3.257-0.005-59.317h18.656l0.016 59.317c0 12.15 9.029 22.192 20.743 23.781l3.257 0.219 59.323 0.011v18.656z" />
<glyph unicode="&#xe917;" glyph-name="menu" d="M832 784c17.673 0 32-14.327 32-32 0-16.411-12.353-29.936-28.268-31.785l-3.732-0.215h-640c-17.673 0-32 14.327-32 32 0 16.411 12.353 29.936 28.268 31.785l3.732 0.215h640zM832 496c17.673 0 32-14.327 32-32 0-16.411-12.353-29.936-28.268-31.785l-3.732-0.215h-640c-17.673 0-32 14.327-32 32 0 16.411 12.353 29.936 28.268 31.785l3.732 0.215h640zM832 176c17.673 0 32-14.327 32-32 0-16.411-12.353-29.936-28.268-31.785l-3.732-0.215h-640c-17.673 0-32 14.327-32 32 0 16.411 12.353 29.936 28.268 31.785l3.732 0.215h640z" />
<glyph unicode="&#xe918;" glyph-name="ibrida" d="M512.029 895.309c10.223-8.436 11.672-23.563 3.235-33.787l-13.154-16.34-13.256-16.868c-6.901-8.869-14.198-18.376-21.823-28.464-36.321-48.049-72.642-99.328-106.506-151.652-32.072-49.556-60.273-97.532-83.524-142.937-44.618-87.131-69.001-160.945-69.001-215.964 0-159.512 129.249-288.772 288.753-288.772s288.753 129.26 288.753 288.772c0 13.255 10.745 24 24 24s24-10.745 24-24c0-186.020-150.739-336.772-336.753-336.772s-336.753 150.751-336.753 336.772c0 64.331 26.49 144.521 74.277 237.842 24.051 46.968 53.054 96.308 85.951 147.139 34.551 53.386 71.531 105.595 108.512 154.517l15.075 19.755c4.865 6.313 9.564 12.349 14.077 18.091l20.35 25.433c8.436 10.223 23.563 11.672 33.787 3.235zM500.323 689.523c10.478-8.118 12.391-23.193 4.273-33.671l-7.521-9.978c-4.575-6.162-9.549-12.993-14.847-20.426l-5.403-7.631c-20.989-29.836-41.98-61.874-61.541-94.799-21.573-36.312-40.049-71.467-54.472-104.532-21.545-49.392-33.135-92.125-33.135-125.61 0-74.135 28.068-124.385 75.312-157.105 16.685-11.556 34.682-20.069 52.67-25.946 10.637-3.475 18.671-5.26 22.726-5.843 13.12-1.886 22.227-14.050 20.341-27.17s-14.050-22.227-27.17-20.341c-24.775 3.561-60.247 15.149-95.897 39.84-59.815 41.427-95.982 106.176-95.982 196.565 0 41.272 13.187 89.891 37.139 144.801 15.296 35.066 34.676 71.942 57.202 109.857 20.24 34.069 41.893 67.116 63.548 97.9l10.953 15.37 18.134 24.447c8.118 10.478 23.193 12.391 33.671 4.273zM809.019 960c14.095 0 23.386-14.681 17.352-27.419v0l-107.018-225.893 143-0.021c13.664 0 22.636-13.7 17.991-25.931v0l-1.207-2.593-117.48-211.454 47.363-0.021c17.161 0 25.227-20.402 14.163-32.194v0l-2.301-2.103-186.667-146.667c-10.805-8.49-26.77-3.212-30.386 10.045v0l-40 146.667c-3.331 12.214 5.863 24.252 18.523 24.252v0l55.176 0.021 72.64 134.912h-142.176c-13.011 0-21.953 12.523-18.463 24.498v0l1.030 2.748 147.693 320c3.138 6.8 9.944 11.154 17.433 11.154v0zM778.648 921.6h-50.688l-129.984-281.6h144.376c13.56 0 22.534-13.512 18.070-25.714v0l-1.165-2.589-93.333-173.333c-3.349-6.219-9.842-10.097-16.905-10.097v0l-41.539 0.021 25.76-94.496 120.256 94.496-24.477-0.021c-13.664 0-22.636 13.7-17.991 25.931v0l1.207 2.593 117.485 211.497-140.701-0.021c-13.088 0-22.034 12.659-18.414 24.666v0l1.062 2.753 106.981 225.914z" />
<glyph unicode="&#xe919;" glyph-name="logged" d="M374.188 361.406c35.582 5.766 114.419-32.263 153.812-32.263 40.302 0 119.979 37.883 156.27 31.86 146.723-24.352 211.73-93.885 211.73-175.86 0-102.252-164.759-185.143-368-185.143s-368 82.891-368 185.143c0 82.433 66.191 152.283 214.188 176.263zM528 864c158.658 0 186-101.311 186-226.287 0-124.974-83.28-226.284-186-226.284-102.726 0-186.006 101.311-186.006 226.284 0 124.976 27.347 226.287 186.006 226.287z" />
<glyph unicode="&#xe91a;" glyph-name="metano" d="M403.184 908.935c-18.936-89.753-49.111-164.107-99.801-257.594l-13.414-24.327-36.745-65.010c-15.747-28.001-27.164-49.219-37.459-70.031-37.404-75.616-55.765-139.652-55.765-210.059 0-140.765 86.23-242.659 229.686-292.124 25.687-8.857 43.998 25.070 22.496 41.681-39.351 30.401-73.515 85.040-73.515 126.888 0 37.955 5.512 66.453 18.183 100.734l4.018 10.473c3.455 8.708 20.124 47.976 24.747 59.595l6.402 16.643 5.843 16.424 2.845 8.76 3.942-5.584c1.761-2.606 3.463-5.263 5.107-7.969 11.991-19.742 20.301-41.063 25.522-62.396 3.101-12.671 4.459-22.292 4.774-27.246 1.548-24.392 34.307-31.132 45.358-9.332l2.609 5.369c1.524 3.24 3.363 7.302 5.458 12.141l2.178 5.096c7.434 17.613 14.848 37.528 21.759 59.382l4.723 15.501c16.699 56.979 26.529 115.485 27 173.748l-0.045 12.169 5.522-6.098c87.040-97.578 128.716-197.498 128.057-290.684-0.656-92.641-45.378-176.888-104.587-217.28-21.022-14.341-8.204-47.239 16.979-43.576 140.056 20.37 247.607 148.075 247.607 299.849 0 207.433-101.629 362.071-399.712 637.528-13.682 12.644-35.926 5.556-39.771-12.672zM438.357 849.975l2.187 8.309 8.627-8.15c258.842-244.36 345.495-384.587 345.495-566.055l-0.127-8.33c-2.614-85.364-45.242-160.622-108.427-204.826l-7.488-5.022 4.627 7.489c29.074 48.692 46.97 108.439 47.415 171.358 0.877 124.142-63.209 255.766-194.29 378.112-16.603 15.497-43.447 1.401-40.116-21.065l1.883-14.33c8.788-76.613-2.323-156.098-26.498-232.54l-2.652-8.16-1.113 2.623c-4.71 10.811-10.367 21.876-17.101 32.965-12.373 20.372-27.538 38.713-45.753 54.453-13.568 11.724-34.733 4.97-39.002-12.446-5.367-21.896-11.498-41.605-19.059-61.991l-5.949-15.462c-4.351-10.934-21.033-50.232-24.765-59.64-17.628-44.434-25.583-80.588-25.583-128.908l0.217-7.398c1.15-19.832 6.821-40.435 15.747-60.434l3.449-7.315-6.972 5.152c-61.435 47.067-95.108 112.463-95.108 193.549 0 62.068 16.395 119.245 50.789 188.777l7.663 15.151c5.324 10.307 11.142 21.156 17.845 33.316l51.308 91.128c48.953 88.199 81.089 159.889 102.753 239.69z" />
<glyph unicode="&#xe91b;" glyph-name="minus" d="M288 416h448c17.673 0 32 14.327 32 32s-14.327 32-32 32h-448c-17.673 0-32-14.327-32-32s14.327-32 32-32z" />
<glyph unicode="&#xe91c;" glyph-name="minus-fill" d="M512 960c282.77 0 512-229.23 512-512s-229.23-512-512-512c-282.77 0-512 229.23-512 512s229.23 512 512 512zM736 480h-448c-17.673 0-32-14.327-32-32s14.327-32 32-32h448c17.673 0 32 14.327 32 32s-14.327 32-32 32z" />
<glyph unicode="&#xe91d;" glyph-name="not-logged" d="M368.11 388.672c18.148 2.936 35.754 0.295 69.197-9.151l46.253-13.704c23.771-6.885 35.395-9.325 44.439-9.325l4.927 0.21c10.444 0.86 24.977 4.466 53.455 12.825l26.323 7.712c38.875 11.072 58.056 14.277 77.774 11.009 152.193-25.225 237.52-100.782 237.52-205.252 0-124.011-181.099-214.996-400-214.996s-400 90.985-400 214.996c0 104.951 86.564 180.831 240.11 205.676zM424.749 324.324c-25.96 7.35-39.844 9.842-47.591 8.588-128.858-20.85-192.592-76.718-192.592-149.916 0-82.27 151.748-158.509 343.434-158.509s343.434 76.239 343.434 158.509c0 72.899-62.661 128.385-190.216 149.527-8.070 1.338-22.238-1.106-48.698-8.425l-45.289-13.138c-29.049-8.23-43.261-10.955-59.232-10.955-15.799 0-29.84 2.754-58.636 11.092l-44.614 13.227zM528 896c159.548 0 216.162-86.812 216.162-256.498 0-140.569-95.423-256.496-216.162-256.496-120.743 0-216.167 115.926-216.167 256.496 0 169.683 56.618 256.498 216.167 256.498zM528 839.513c-121.95 0-159.602-57.732-159.602-200.011 0-111.549 72.815-200.009 159.602-200.009 86.782 0 159.596 88.46 159.596 200.009l-0.208 17.706c-3.149 129.384-42.629 182.305-159.388 182.305z" />
<glyph unicode="&#xe91e;" glyph-name="alert" d="M815.795 864c35.516 0 48.205-98.105 48.205-384l-0.173-58.012c-1.53-241.861-13.486-324.216-45.55-325.959l-1.053-0.028h-1.43c-11.139 0-21.046 4.851-30.507 13.723-11.047 10.359-64.154 92.372-85.817 117.451-67.632 78.296-159.884 121.916-302.138 121.916-3.169 0-6.080 1.061-8.367 2.834l-7.014 0.075 0.035-3.757c0.708-54.777 5.622-100.638 13.644-136.62l1.795-7.653c6.102-24.765 13.292-41.932 18.133-47.081 25.36-27.007 32.442-40.154 32.442-67.939 0-33.801-17.191-55.6-48.928-56.89l-3.018-0.061h-57.381c-37.418 0-56.179 20.15-63.003 58.191l-2.696 14.888c-27.242 149.029-49.482 226.965-71.305 250.431-42.404 11.34-73.67 49.842-73.67 95.69v0 57.6c0 54.859 44.764 99.2 99.758 99.2v0l161.111 0.016c2.302 1.818 5.251 2.91 8.465 2.91 141.436 0 233.739 43.649 301.833 121.941 21.653 24.896 76.217 108.507 88.049 118.97 8.888 7.859 18.223 12.163 28.58 12.163zM356.346 351.984l-121.38 0.026c22.004-41.937 41.745-122.376 65.855-256.772 4.537-25.292 13.297-35.431 35.346-36.123l2.505-0.038h57.381c18.71 0 26.346 9.227 26.346 29.874 0 19.102-3.951 26.437-24.999 48.852-21.591 22.962-39.993 103.333-41.054 214.182zM813.133 837.965l-0.755-0.253c-1.637-0.63-3.45-1.718-5.507-3.364l-1.589-1.34c-8.647-7.646-61.892-89.237-85.646-116.549-69.951-80.427-164.37-127.079-303.594-130.881l0.011-211.137c140.002-3.784 234.412-50.428 303.945-130.925l3.391-4.046c24.874-30.46 72.678-104.067 80.533-111.434 3.817-3.58 6.931-5.485 9.642-6.154l0.85-0.154 0.395 0.659c0.354 0.649 0.741 1.439 1.15 2.374l0.629 1.511c3.44 8.674 6.645 23.449 9.429 44.993l0.551 4.399c6.98 57.459 10.766 156.052 10.766 304.335l-0.118 41.944c-0.724 124.387-4.75 209.945-11.521 262.297-3.083 23.839-6.656 40.056-10.458 49.371-0.666 1.632-1.293 2.937-1.845 3.928l-0.257 0.425zM898.133 544c51.762 0 93.867-35.786 93.867-80 0-43.264-40.288-78.441-90.505-79.95l-3.362-0.050h-19.911c-7.855 0-14.222 5.51-14.222 12.308 0 6.312 5.49 11.514 12.564 12.225l1.659 0.083h19.911c36.173 0 65.422 24.855 65.422 55.385 0 29.647-27.609 53.959-62.34 55.324l-3.082 0.060h-19.911c-7.855 0-14.222 5.51-14.222 12.308 0 6.312 5.49 11.514 12.564 12.225l1.659 0.083h19.911z" />
<glyph unicode="&#xe91f;" glyph-name="play" d="M714.598 389.669l-233.327-169.218c-42.92-31.127-102.948-21.567-134.075 21.353-11.886 16.389-18.286 36.116-18.286 56.361v338.436c0 53.019 42.981 96 96 96 20.245 0 39.972-6.4 56.361-18.286l233.327-169.218c42.92-31.127 52.48-91.155 21.353-134.075-5.947-8.199-13.153-15.406-21.353-21.353z" />
<glyph unicode="&#xe920;" glyph-name="plus" d="M512 704c17.673 0 32-14.327 32-32v0-192h192c16.411 0 29.936-12.353 31.785-28.268l0.215-3.732c0-17.673-14.327-32-32-32v0h-192v-192c0-16.411-12.353-29.936-28.268-31.785l-3.732-0.215c-17.673 0-32 14.327-32 32v0 192h-192c-16.411 0-29.936 12.353-31.785 28.268l-0.215 3.732c0 17.673 14.327 32 32 32v0h192v192c0 16.411 12.353 29.936 28.268 31.785z" />
<glyph unicode="&#xe921;" glyph-name="plus-fill" d="M512 960c282.77 0 512-229.23 512-512s-229.23-512-512-512c-282.77 0-512 229.23-512 512s229.23 512 512 512zM512 704l-3.732-0.215c-15.915-1.848-28.268-15.374-28.268-31.785v0-192h-192l-3.732-0.215c-15.915-1.848-28.268-15.374-28.268-31.785v0l0.215-3.732c1.848-15.915 15.374-28.268 31.785-28.268v0h191.968l0.032-192 0.215-3.732c1.848-15.915 15.374-28.268 31.785-28.268v0l3.732 0.215c15.915 1.848 28.268 15.374 28.268 31.785v0 192h192l3.732 0.215c15.915 1.848 28.268 15.374 28.268 31.785v0l-0.215 3.732c-1.848 15.915-15.374 28.268-31.785 28.268v0h-192v192l-0.215 3.732c-1.848 15.915-15.374 28.268-31.785 28.268v0z" />
<glyph unicode="&#xe922;" glyph-name="search" d="M464 768c150.22 0 272-121.78 272-272 0-48.758-12.829-94.519-35.297-134.093l121.924-121.966c11.535-11.535 12.423-29.687 2.662-42.24l-2.662-3.015-57.313-57.313c-11.535-11.535-29.687-12.423-42.24-2.662l-3.015 2.662-121.966 121.924c-39.574-22.467-85.335-35.297-134.093-35.297-150.22 0-272 121.78-272 272s121.78 272 272 272zM464 704c-114.874 0-208-93.126-208-208s93.126-208 208-208c114.874 0 208 93.126 208 208s-93.126 208-208 208z" />
<glyph unicode="&#xe923;" glyph-name="check" d="M737.229 599.523c17.321-17.823 18.021-45.646 2.376-64.277l-3.347-3.598-284.283-276.269c-12.145-11.803-28.934-15.888-44.293-12.343-8.034 1.331-15.815 4.708-22.478 10.141l-3.646 3.295-118.564 118.564c-18.745 18.745-18.745 49.137 0 67.882 17.574 17.574 45.384 18.672 64.237 3.295l3.646-3.295 86.882-86.887 251.594 244.461c19.011 18.475 49.4 18.041 67.875-0.97z" />
<glyph unicode="&#xe924;" glyph-name="monovolume-1" d="M800 435.2c-38.4 0-70.4-35.2-70.4-73.6 0-3.2 0-6.4 0-9.6 3.2-35.2 32-64 70.4-64s70.4 28.8 73.6 67.2c0 3.2 0 3.2 0 6.4 0 41.6-32 73.6-73.6 73.6zM764.8 387.2l16-16c-3.2-3.2-3.2-3.2-3.2-6.4h-22.4c3.2 9.6 6.4 16 9.6 22.4zM755.2 355.2h22.4c0-3.2 0-6.4 3.2-6.4l-16-16c-6.4 6.4-9.6 16-9.6 22.4zM793.6 313.6c-9.6 3.2-16 6.4-22.4 9.6l16 16c3.2 0 6.4-3.2 6.4-3.2v-22.4zM793.6 384c-3.2 0-3.2-3.2-6.4-3.2l-16 16c6.4 6.4 16 9.6 22.4 9.6v-22.4zM806.4 406.4c9.6 0 16-3.2 22.4-9.6l-16-16c-3.2 3.2-3.2 3.2-6.4 3.2v22.4zM806.4 313.6v22.4c3.2 0 3.2 3.2 6.4 3.2l16-16c-6.4-6.4-16-9.6-22.4-9.6zM835.2 332.8l-16 16c3.2 3.2 3.2 3.2 3.2 6.4h22.4c0-9.6-3.2-16-9.6-22.4zM825.6 364.8c0 3.2-3.2 3.2-3.2 6.4l16 16c3.2-3.2 6.4-12.8 9.6-22.4h-22.4zM198.4 435.2c-38.4 0-70.4-35.2-70.4-73.6 0-3.2 0-6.4 0-9.6 3.2-35.2 32-64 70.4-64s70.4 28.8 73.6 67.2c0 3.2 0 3.2 0 6.4 0 41.6-32 73.6-73.6 73.6zM163.2 387.2l16-12.8c-3.2-3.2-3.2-3.2-3.2-6.4h-22.4c3.2 6.4 6.4 16 9.6 19.2zM153.6 355.2h22.4c0-3.2 0-6.4 3.2-6.4l-16-16c-6.4 6.4-9.6 16-9.6 22.4zM192 316.8c-6.4 0-12.8 3.2-22.4 6.4l16 16c3.2 0 6.4-3.2 6.4 0v-22.4zM192 384c0 0-3.2 0-6.4 0l-16 12.8c6.4 6.4 16 9.6 22.4 9.6v-22.4zM204.8 406.4c9.6 0 16-3.2 22.4-9.6l-16-16c-3.2 3.2-3.2 3.2-6.4 3.2v22.4zM204.8 313.6v22.4c3.2 0 3.2 3.2 6.4 3.2l16-16c-6.4-6.4-16-9.6-22.4-9.6zM236.8 332.8l-16 16c3.2 3.2 3.2 3.2 3.2 6.4h19.2c0-9.6-3.2-16-6.4-22.4zM224 364.8c0 3.2-3.2 3.2-3.2 6.4l16 16c3.2-3.2 6.4-12.8 9.6-22.4h-22.4zM976 473.6v54.4c0 6.4-16 12.8-16 16 0 0 0 0 0 0 0 22.4-3.2 73.6-16 86.4-3.2 3.2-3.2 3.2-6.4 3.2-25.6 3.2-44.8 6.4-115.2 6.4-41.6 0-86.4 0-128 0-76.8 3.2-179.2 0-259.2-28.8-22.4-9.6-124.8-57.6-188.8-83.2-16 0-192-38.4-201.6-64s-9.6-38.4-12.8-44.8c0-6.4 0-38.4 12.8-60.8 12.8-6.4 38.4-12.8 67.2-16 0 3.2 0 3.2 0 6.4s0 6.4 0 9.6c0 51.2 38.4 89.6 86.4 89.6s89.6-38.4 89.6-86.4c0 0 0-3.2 0-6.4 0-6.4-3.2-9.6-3.2-16l428.8 9.6v3.2c0 3.2 0 6.4 0 9.6 0 51.2 38.4 89.6 86.4 89.6s86.4-41.6 86.4-89.6h3.2l73.6 12.8c0 0 28.8 16 28.8 57.6 0 28.8-16 41.6-16 41.6zM726.4 534.4l-147.2-6.4h-32l-160-6.4c0 22.4-12.8 28.8-12.8 28.8 64 57.6 192 60.8 192 60.8h25.6c76.8 0 118.4-6.4 131.2-6.4l9.6-44.8-6.4-25.6zM905.6 534.4h-137.6l-28.8 70.4c137.6-16 147.2-19.2 166.4-41.6 6.4-6.4 3.2-19.2 0-28.8z" />
<glyph unicode="&#xe925;" glyph-name="diesel" d="M504 864c188.497 0 344-69.975 344-168 0-18.604-5.601-36.198-15.966-52.494l-0.066-135.314 3.432-5.736c7.059-12.672 11.274-25.936 12.334-39.595l0.272-6.868c0-18.626-5.57-36.257-15.972-52.602l-0.066-135.2 3.432-5.736c7.059-12.672 11.274-25.936 12.334-39.595l0.266-6.861c0-98.025-155.503-168-344-168s-344 69.975-344 168c0 16.082 4.364 31.671 12.6 46.456l3.368 5.672-0.039 135.328c-10.374 16.327-15.929 33.938-15.929 52.544 0 16.082 4.364 31.671 12.6 46.456l3.368 5.672 0.018 135.345c-10.378 16.306-15.986 33.91-15.986 52.527 0 98.025 155.503 168 344 168zM784.047 596.418c-62.646-42.453-165.225-68.418-280.047-68.418-114.802 0-217.366 25.956-280.015 68.396l0.015-95.596c0-5.076-1.609-10.020-4.596-14.124-7.704-10.583-11.404-20.772-11.404-30.676 0-2.735 0.282-5.491 0.853-8.272 0.049-0.311 0.114-0.619 0.183-0.927l-0.183 0.927c1.496-7.289 4.975-14.743 10.551-22.404l0.829-1.36c20.826-27.515 67.345-53.492 132.622-70.079 12.847-3.264 20.614-16.325 17.35-29.172s-16.325-20.614-29.172-17.35c-46.806 11.894-86.715 28.594-117.055 49.051l0.022-95.615c0-5.076-1.609-10.020-4.596-14.124-7.704-10.583-11.404-20.772-11.404-30.676 0-61.043 131.018-120 296-120s296 58.957 296 120c0 9.904-3.7 20.093-11.404 30.676-2.24 3.078-3.705 6.629-4.298 10.353l-0.298 3.771 0.053 95.634c-30.345-20.469-70.265-37.179-117.079-49.077-12.846-3.265-25.907 4.502-29.172 17.349s4.502 25.907 17.349 29.172c65.264 16.587 111.789 42.572 132.62 70.086 0.205 0.477 0.508 0.923 0.826 1.36 7.704 10.583 11.404 20.772 11.404 30.676s-3.7 20.093-11.404 30.676c-2.24 3.078-3.705 6.629-4.298 10.353l-0.298 3.771zM504 816c-164.982 0-296-58.957-296-120s131.018-120 296-120c164.982 0 296 58.957 296 120s-131.018 120-296 120zM368 728c30.928 0 56-10.736 56-24s-25.072-24-56-24c-30.928 0-56 10.736-56 24s25.072 24 56 24z" />
<glyph unicode="&#xe926;" glyph-name="star" d="M411.488 586.336l-147.517-43.891-2.548-0.994c-8.825-4.333-11.845-15.912-5.596-24.072l93.581-122.18-3.876-153.904 0.158-2.731c1.394-9.732 11.473-16.183 21.164-12.761l145.114 51.251 145.178-51.251 2.646-0.693c9.687-1.681 18.936 5.911 18.676 16.185l-3.908 153.904 93.613 122.18 1.477 2.302c4.592 8.693 0.23 19.836-9.621 22.764l-147.549 43.891-87.302 126.738c-6.359 9.234-19.997 9.234-26.356 0l-87.334-126.738z" />
<glyph unicode="&#xe927;" glyph-name="step2" d="M1007.126 797.376c0 89.67-72.871 162.624-162.439 162.624s-162.439-72.954-162.439-162.624c0-35.729 11.711-69.702 32.7-97.573h-32.7v-48.788c0-26.897 21.866-48.788 48.733-48.788h97.462v-23.093c0-7.561-5.134-14.067-12.492-15.822l-617.271-147.143c-4.939-1.154-9.91-0.034-13.839 3.057-3.899 3.108-6.157 7.756-6.157 12.766v7.612h97.462c26.867 0 48.733 21.891 48.733 48.788v48.785h-32.7c20.986 27.874 32.7 61.848 32.7 97.573 0 89.67-72.871 162.624-162.439 162.624s-162.439-72.95-162.439-162.621c0-35.729 11.711-69.702 32.7-97.573h-32.7v-48.788c0-26.897 21.869-48.788 48.736-48.788h97.462v-7.612c0-15.026 6.758-28.981 18.533-38.283 8.722-6.895 19.28-10.522 30.101-10.522 3.786 0 7.617 0.441 11.387 1.349l263.688 62.855c-0.505-1.595-0.989-3.203-1.266-4.894l-81.723-490.768h233.28l-81.706 490.768c-1.235 7.431-4.776 13.889-9.715 18.93l294.696 70.252c22.060 5.235 37.459 24.753 37.459 47.453v23.093h97.462c26.867 0 48.733 21.891 48.733 48.788v48.792h-32.7c20.986 27.871 32.7 61.844 32.7 97.573z" />
<glyph unicode="&#xe928;" glyph-name="step3" d="M887.282 957.988c11.616-4.063 20.055-13.609 22.765-25.426l0.688-4.019 8.484-73.854 73.492-8.519c13.578-1.578 24.797-10.616 29.289-23.579 3.993-11.523 1.906-23.933-5.395-33.37l-2.98-3.392-145.274-146.004c-6.706-6.747-15.643-10.421-24.985-10.398l-4.023 0.238-91.078 10.561-32.367-32.53c138.118-160.711 131.305-404.572-20.445-557.086-158.883-159.682-417.408-159.682-576.291 0s-158.883 419.506 0 579.189c149.178 149.929 386.193 159.086 546.105 27.481l8.202-6.933 32.359 32.53-10.508 91.536c-1.087 9.474 1.6 18.792 7.424 26.134l2.686 3.020 145.274 146.004c9.664 9.713 23.68 12.94 36.578 8.417zM630.899 607.562c-136.383 115.374-340.962 108.575-469.306-20.407-135.485-136.174-135.485-357.728 0-493.902 135.485-136.166 355.939-136.166 491.423 0 128.344 128.989 135.11 334.597 20.313 471.666v0l-54.867-55.143c84.844-106.557 78.157-262.941-20.047-361.639-105.375-105.905-276.837-105.905-382.212 0s-105.375 278.229 0 384.134c98.203 98.697 253.806 105.418 359.829 20.148v0zM258.632 489.62c-81.977-82.389-81.977-216.451 0-298.84s215.368-82.389 297.345 0c72.704 73.070 80.927 186.766 24.689 269.034l-4.978 6.973-57.188-57.483c31.109-50.589 24.859-117.973-18.758-161.81-50.914-51.178-133.766-51.17-184.68 0s-50.914 134.439 0 185.609c41.94 42.151 105.542 49.579 155.121 22.293l5.88-3.441 57.188 57.475c-82.289 61.951-199.844 55.347-274.618-19.81z" />
<glyph unicode="&#xe929;" glyph-name="close-round" d="M697.706 601.706c93.726-93.726 93.726-245.685 0-339.411s-245.685-93.726-339.411 0c-93.726 93.726-93.726 245.685 0 339.411s245.685 93.726 339.411 0zM612.853 505.539l-2.077 1.736c-5.846 4.050-13.929 3.471-19.136-1.736v0l-63.64-63.628-63.64 63.628-2.077 1.736c-5.846 4.050-13.929 3.471-19.136-1.736v0l-1.736-2.077c-4.050-5.846-3.471-13.929 1.736-19.136v0l63.651-63.617-63.651-63.662-1.736-2.077c-4.050-5.846-3.471-13.929 1.736-19.136v0l2.077-1.736c5.846-4.050 13.929-3.471 19.136 1.736v0l63.64 63.674 63.64-63.674 2.077-1.736c5.846-4.050 13.929-3.471 19.136 1.736v0l1.736 2.077c4.050 5.846 3.471 13.929-1.736 19.136v0l-63.651 63.662 63.651 63.617 1.736 2.077c4.050 5.846 3.471 13.929-1.736 19.136v0z" />
<glyph unicode="&#xe92a;" glyph-name="mail" d="M128 600.704l359.552-251.691c14.507-10.027 33.92-10.496 48.939 0l359.509 251.691v-430.037c0-11.605-4.693-22.229-12.587-30.080s-18.475-12.587-30.080-12.587h-682.667c-11.605 0-22.229 4.693-30.080 12.587s-12.587 18.475-12.587 30.080zM42.667 682.155v-511.488c0-35.328 14.507-67.371 37.547-90.453s55.125-37.547 90.453-37.547h682.667c35.328 0 67.371 14.507 90.453 37.547s37.547 55.125 37.547 90.453v511.488c0 0.427 0 0.853 0 1.28-0.213 35.029-14.635 66.773-37.547 89.685-23.083 23.040-55.125 37.547-90.453 37.547h-682.667c-35.328 0-67.371-14.507-90.453-37.547-22.912-22.912-37.333-54.656-37.547-89.728 0-0.213 0-0.469 0-0.725zM891.477 701.696l-379.477-265.6-379.477 265.6c2.048 4.096 4.779 7.808 8.021 11.051 7.893 7.893 18.517 12.587 30.123 12.587h682.667c11.605 0 22.229-4.693 30.080-12.587 3.243-3.243 5.973-6.997 8.021-11.051z" />
<glyph unicode="&#xe92b;" glyph-name="facebook1" d="M1023.919 448.038c0 282.749-229.21 511.962-511.957 511.962-282.749 0-511.962-229.212-511.962-511.962 0-255.535 187.217-467.332 431.966-505.741v357.751h-129.989v147.989h129.989v112.792c0 128.31 76.433 199.185 193.374 199.185 56.013 0 114.603-9.999 114.603-9.999v-125.99h-64.555c-63.599 0-83.435-39.464-83.435-79.951v-96.037h141.99l-22.699-147.989h-119.292v-357.751c244.753 38.409 431.966 250.206 431.966 505.741z" />
<glyph unicode="&#xe92c;" glyph-name="instagram1" d="M512 960c-139.093 0-156.459-0.64-211.072-3.072-54.528-2.56-91.648-11.136-124.288-23.808-33.664-13.056-62.251-30.592-90.709-59.051s-46.037-57.003-59.051-90.709c-12.672-32.64-21.291-69.76-23.808-124.288-2.56-54.613-3.072-71.979-3.072-211.072s0.64-156.459 3.072-211.072c2.56-54.485 11.136-91.648 23.808-124.288 13.056-33.621 30.592-62.251 59.051-90.709 28.459-28.416 57.003-46.037 90.709-59.051 32.683-12.629 69.803-21.291 124.288-23.808 54.613-2.56 71.979-3.072 211.072-3.072s156.459 0.64 211.072 3.072c54.485 2.56 91.648 11.179 124.288 23.808 33.621 13.056 62.251 30.635 90.709 59.051 28.416 28.459 46.037 56.96 59.051 90.709 12.629 32.64 21.291 69.803 23.808 124.288 2.56 54.613 3.072 71.979 3.072 211.072s-0.64 156.459-3.072 211.072c-2.56 54.485-11.179 91.691-23.808 124.288-13.056 33.664-30.635 62.251-59.051 90.709-28.459 28.459-56.96 46.037-90.709 59.051-32.64 12.672-69.803 21.291-124.288 23.808-54.613 2.56-71.979 3.072-211.072 3.072zM512 867.84c136.661 0 152.96-0.683 206.933-3.029 49.92-2.347 77.013-10.624 95.019-17.707 23.979-9.259 40.96-20.352 58.965-38.229 17.877-17.92 28.971-34.944 38.229-58.923 6.997-18.005 15.36-45.099 17.621-95.019 2.432-54.016 2.987-70.229 2.987-206.933s-0.64-152.96-3.157-206.933c-2.603-49.92-10.923-77.013-17.963-95.019-9.557-23.979-20.437-40.96-38.357-58.965-17.877-17.877-35.157-28.971-58.88-38.229-17.92-6.997-45.44-15.36-95.36-17.621-54.357-2.432-70.357-2.987-207.317-2.987-137.003 0-153.003 0.64-207.317 3.157-49.963 2.603-77.483 10.923-95.403 17.963-24.277 9.557-40.96 20.437-58.837 38.357-17.963 17.877-29.44 35.157-38.4 58.88-7.040 17.92-15.317 45.44-17.92 95.36-1.92 53.76-2.603 70.357-2.603 206.677 0 136.363 0.683 153.003 2.603 207.403 2.603 49.92 10.88 77.397 17.92 95.317 8.96 24.32 20.437 40.96 38.4 58.923 17.877 17.877 34.56 29.397 58.837 38.315 17.92 7.083 44.843 15.403 94.763 17.963 54.4 1.92 70.4 2.56 207.317 2.56l1.92-1.28zM512 710.912c-145.28 0-262.912-117.76-262.912-262.912 0-145.28 117.76-262.912 262.912-262.912 145.28 0 262.912 117.76 262.912 262.912 0 145.28-117.76 262.912-262.912 262.912zM512 277.333c-94.293 0-170.667 76.373-170.667 170.667s76.373 170.667 170.667 170.667 170.667-76.373 170.667-170.667-76.373-170.667-170.667-170.667zM846.763 721.28c0-33.92-27.563-61.44-61.44-61.44-33.92 0-61.44 27.563-61.44 61.44s27.563 61.397 61.44 61.397c33.835 0.043 61.44-27.52 61.44-61.397z" />
<glyph unicode="&#xe92d;" glyph-name="messenger" d="M0 463.36c0 285.44 223.573 496.64 512 496.64s512-211.2 512-496.64-223.573-496.64-512-496.64c-51.627 0-101.547 6.827-148.053 19.627-3.193 0.894-6.86 1.408-10.647 1.408-6.032 0-11.76-1.304-16.917-3.646l0.257 0.104-101.973-44.8c-4.899-2.236-10.625-3.54-16.656-3.54-22.216 0-40.301 17.686-40.942 39.747l-0.001 0.059-2.987 91.307c-0.5 11.541-5.653 21.787-13.617 28.981l-0.036 0.032c-98.714 89.298-160.47 217.866-160.47 360.857 0 2.286 0.016 4.569 0.047 6.848l-0.004-0.345zM354.987 556.8l-150.187-238.933c-14.933-22.613 13.653-48.64 34.987-32l161.707 122.453c11.093 8.533 25.6 8.533 37.12 0l119.467-89.6c35.84-26.88 87.040-17.067 110.933 20.48l150.187 238.933c14.933 22.613-13.653 48.213-34.987 32l-161.707-122.453c-10.667-8.533-25.6-8.533-36.693 0l-119.467 89.6c-12.716 9.688-28.823 15.521-46.293 15.521-27.292 0-51.26-14.236-64.881-35.688l-0.186-0.313z" />
<glyph unicode="&#xe92e;" glyph-name="skype" d="M514.944 154.709c-171.648 0-248.32 84.437-248.32 147.797 0 32.64 23.936 55.296 56.875 55.296 73.515 0 54.315-105.685 191.445-105.685 70.016 0 108.8 38.187 108.8 77.269 0 23.509-11.477 49.493-57.771 60.971l-152.576 38.187c-122.88 30.891-145.195 97.536-145.195 160.043 0 130.005 122.069 178.816 236.757 178.816 105.429 0 230.101-58.581 230.101-136.491 0-33.451-29.355-52.907-61.995-52.907-62.677 0-51.115 86.912-177.664 86.912-62.677 0-97.792-28.331-97.792-68.992s49.195-53.675 92.032-63.445l112.512-25.045c123.349-27.691 154.624-100.096 154.624-168.277 0-105.643-81.152-184.491-244.139-184.491zM985.557 362.965l-1.237-5.76-1.877 10.24c0.64-1.92 1.877-3.157 2.517-5.12 5.12 28.8 7.723 58.155 7.723 87.552 0 65.237-12.843 128.512-38.315 188.587-24.277 57.515-59.52 109.312-103.552 153.429-44.757 44.075-95.872 79.189-153.387 103.509-56.235 26.923-119.509 39.68-184.661 39.68-30.72 0-61.611-2.987-91.435-8.704l5.077-2.56-10.197 1.408 5.077 1.067c-41.131 22.016-87.253 33.707-134.101 33.707-76.331 0-148.053-29.781-202.069-83.925-54.016-54.101-83.755-126.123-83.755-202.624 0-48.768 12.459-96.64 36.011-139.008l0.853 5.291 1.749-10.197-2.56 4.907c-4.864-27.52-7.339-55.424-7.339-83.413 0-65.28 12.8-128.725 37.717-188.416 24.235-58.112 58.795-109.909 103.552-153.984 44.117-44.8 95.872-79.232 153.387-104.192 59.477-25.6 122.752-38.315 187.904-38.315 28.117 0 56.917 2.56 84.352 7.637l-5.077 2.645 10.24-1.963-5.76-1.28c42.752-24.277 90.709-37.163 140.544-37.163 76.075 0 147.584 29.44 201.941 83.755 53.717 53.717 83.712 125.909 83.712 202.624 0 48.555-12.757 96.512-36.395 139.349z" />
<glyph unicode="&#xe92f;" glyph-name="whatsapp" d="M746.581 346.368c-12.843 6.4-75.392 36.992-87.040 41.216-11.648 4.309-20.181 6.4-28.715-6.4-8.405-12.587-32.896-41.131-40.277-49.579-7.467-8.32-14.891-8.96-27.563-3.2-12.8 6.4-53.888 19.84-102.528 63.36-37.888 33.92-63.317 75.52-70.827 88.32-7.424 12.8-0.811 19.84 5.547 26.24 5.803 5.76 12.843 14.72 19.243 22.315 6.229 7.723 8.277 12.843 12.672 21.163 4.267 8.96 2.091 16-1.067 22.357-3.2 6.4-28.672 69.12-39.339 94.123-10.24 24.917-20.779 21.76-28.672 21.76-7.339 0.64-15.829 0.64-24.363 0.64s-22.315-3.157-34.005-15.317c-11.648-12.8-44.587-43.52-44.587-105.6s45.653-122.24 52.011-131.2c6.357-8.32 89.813-136.32 217.6-191.36 30.464-12.8 54.187-20.48 72.704-26.837 30.464-9.685 58.24-8.32 80.213-5.163 24.491 3.883 75.392 30.763 86.016 60.843 10.88 30.080 10.88 55.040 7.68 60.8-3.157 5.76-11.52 8.96-24.32 14.72zM514.603 32h-0.683c-75.52 0-150.357 20.48-215.68 58.88l-15.36 9.131-160-41.6 42.88 155.52-10.197 16c-42.24 67.243-64.683 144.683-64.683 224.427 0 232.32 190.080 421.76 424.192 421.76 113.237 0 219.52-44.16 299.563-124.16 80-79.317 124.117-185.6 124.117-298.24-0.171-232.277-190.293-421.76-423.893-421.76zM875.52 812.843c-97.28 94.037-225.28 147.157-361.6 147.157-280.832 0-509.483-227.584-509.611-507.435 0-89.429 23.424-176.64 68.053-253.653l-72.363-262.912 270.293 70.485c74.496-40.235 158.293-61.611 243.627-61.739h0.256c280.96 0 509.696 227.669 509.824 507.563 0 135.509-52.907 263.040-149.12 358.869z" />
<glyph unicode="&#xe930;" glyph-name="files-empty" d="M917.806 602.924c-22.21 30.292-53.174 65.7-87.178 99.704s-69.412 64.964-99.704 87.178c-51.574 37.82-76.592 42.194-90.924 42.194h-368c-44.114 0-80-35.888-80-80v-736c0-44.112 35.886-80 80-80h608c44.112 0 80 35.888 80 80v496c0 14.332-4.372 39.35-42.194 90.924zM785.374 657.374c30.7-30.7 54.8-58.398 72.58-81.374h-153.954v153.946c22.982-17.78 50.678-41.878 81.374-72.572v0zM896 16c0-8.672-7.328-16-16-16h-608c-8.672 0-16 7.328-16 16v736c0 8.672 7.328 16 16 16 0 0 367.956 0.002 368 0v-224c0-17.672 14.324-32 32-32h224v-496zM602.924 917.804c-51.574 37.822-76.592 42.196-90.924 42.196h-368c-44.112 0-80-35.888-80-80v-736c0-38.632 27.528-70.958 64-78.39v814.39c0 8.672 7.328 16 16 16h486.876c-9.646 7.92-19.028 15.26-27.952 21.804z" />
<glyph unicode="&#xe931;" glyph-name="gmail" d="M1024 768v-640c0-36.267-27.733-64-64-64h-64v580.821l-384-275.755-384 275.755v-580.821h-64c-36.309 0-64 27.733-64 64v640c0 18.133 6.912 34.133 18.389 45.568 11.477 11.605 27.52 18.432 45.611 18.432h21.333l426.667-309.333 426.667 309.333h21.333c18.133 0 34.133-6.912 45.611-18.432 11.52-11.435 18.389-27.435 18.389-45.568z" />
<glyph unicode="&#xe932;" glyph-name="twitter" d="M1022.037 765.056c-37.76-16.597-78.080-27.904-120.533-33.067 43.264 26.069 76.544 67.157 92.288 116.181-40.576-23.68-85.547-40.917-133.419-50.517-38.229 40.917-92.715 66.517-153.216 66.517-115.925 0-209.92-93.995-209.92-209.792 0-16.64 1.92-32.64 5.419-47.957-174.507 8.235-329.173 92.032-432.683 218.709-18.219-30.805-28.416-66.603-28.416-105.6 0-72.96 37.12-137.088 93.355-174.763-34.432 1.109-66.816 10.581-95.061 26.283v-2.603c0-101.76 72.235-186.624 168.363-205.952-17.621-4.736-36.224-7.296-55.296-7.296-13.397 0-26.24 1.28-39.083 3.669 26.923-83.328 104.32-144.085 196.437-145.792-71.68-56.277-162.517-89.813-260.352-89.813-16.64 0-33.237 0.981-49.92 2.859 93.397-59.477 203.435-94.251 322.432-94.251 386.304 0 597.291 319.829 597.291 596.736 0 8.917 0 17.92-0.64 26.88 41.003 29.397 76.8 66.56 104.96 108.715l-2.005 0.853z" />
<glyph unicode="&#xe933;" glyph-name="steering" d="M511.943 835.74c-178.606 0-328.981-120.893-373.873-285.368-2.97-18.244 12.899-18.244 12.899-18.244h206.695c23.648 85.812 249.239 107.258 315.29 0h202.367c0 0 17.114 0 10.777 17.223-44.552 164.999-195.182 286.389-374.156 286.389zM681.667 369.282c-48.088 0-83.391-31.355-83.391-70.079v-217.193c0 0 0-11.537 16.322-8.087 135.298 37.096 241.064 145.706 274.132 282.69 2.291 8.28-3.225 10.792-6.11 10.847-51.624 1.104-201.010 1.766-201.010 1.766l0.057 0.055zM356.674 368.178l-212.777-1.352c0 0-11.315-0.304-8.175-11.979 33.945-137.619 141.238-246.312 278.036-282.083 14.794-4.692 14.794 9.274 14.794 9.274v217.027c-0.42 38.411-32.567 69.273-71.935 69.058l0.057 0.055zM512 960c282.873 0 512-229.089 512-512s-229.127-512-512-512c-282.873 0-512 229.089-512 512s229.184 511.945 511.943 511.945l0.057 0.055z" />
<glyph unicode="&#xe934;" glyph-name="wheel" horiz-adv-x="1023" d="M522.1-63.792c-283.021-7.289-520.643 223.46-522.1 507.522-1.25 276.982 216.171 505.856 490.862 515.853 309.887 11.246 522.309-237.621 532.097-488.571 11.871-299.474-229.291-532.305-500.858-534.804zM571.249 634.494c4.582-13.953 5.415-30.822 14.161-39.985 33.738-35.404 58.728-43.942 101.005-20.201 56.229 31.655 111.626 64.768 167.647 97.048 12.495 7.289 12.912 7.289 4.165 18.951-32.905 43.942-70.391 83.095-117.249 112.251-31.655 19.784-64.56 37.903-100.588 48.316-21.034 6.039-19.16 8.747-24.991-13.537-7.289-27.698-14.578-55.396-20.617-83.303-8.33-39.361-15.619-79.138-23.533-119.54zM89.759 438.316l-2.707-0.417c3.749-25.199 6.039-50.606 11.246-75.389 12.912-62.477 39.569-121.206 78.096-172.020 4.998-6.664 9.372-9.372 16.661-2.499 4.998 4.79 11.454 8.122 16.452 12.912 45.4 42.484 90.8 84.969 135.992 127.662 34.362 32.488 16.869 79.971-2.707 102.046-10.413 11.662-25.616 15.203-40.61 17.285-36.237 4.998-72.473 10.205-108.918 14.161-30.822 3.332-61.852 5.206-92.883 7.914-7.706 0.625-11.038-1.874-10.621-9.788 0.417-7.289 0-14.578 0-21.867zM450.044 635.952c-3.749 25.407-6.248 51.231-11.871 76.43-9.163 41.86-20.201 83.303-30.614 124.954-4.998 19.576-5.831 20.201-25.199 13.745-72.057-23.533-136.617-65.809-186.807-122.663-12.079-13.537-22.7-28.323-33.738-42.693-4.165-5.206-3.54-8.539 2.707-12.287 58.104-33.321 115.583-67.475 174.103-100.172 12.495-7.081 28.531-12.287 42.484-11.454 28.739 1.874 72.473 28.739 68.933 74.14zM932.992 435.4c0 8.747-0.208 17.494 0 26.24 0.208 6.248-2.083 8.955-8.539 8.539-21.242-1.666-42.484-2.083-63.727-4.373-43.317-4.79-86.427-10.621-129.744-16.036-21.034-2.707-43.734-5.206-55.605-24.574-24.366-39.361-25.616-71.849 8.747-103.087 35.404-31.863 69.766-64.976 104.753-97.256 14.161-12.912 28.948-25.199 43.317-37.903 5.206-4.582 9.163-3.332 12.704 1.874 8.955 13.328 18.951 26.032 27.073 39.777 37.903 63.518 59.145 132.451 61.019 206.799v0zM504.607 25.759c46.441 0 92.674 6.872 137.033 20.617 22.492 6.872 24.366 3.749 13.537 28.739-20.617 47.691-42.068 94.965-63.727 142.031-7.497 15.619-16.036 30.822-25.199 45.608-21.867 36.862-88.926 35.82-109.335 0-11.454-19.784-22.492-39.985-32.072-60.811-20.617-44.984-40.61-90.175-60.395-135.575-5.206-12.079-3.957-13.328 7.914-17.285 45.4-14.786 91.841-22.908 132.243-23.325zM475.034 449.354c-0.208-20.826 15.411-37.070 35.82-37.278 20.201-0.625 37.070 15.411 37.695 35.82s-15.411 37.070-35.82 37.695c-0.625 0-1.25 0-1.666 0-19.993-0.417-35.82-16.452-36.028-36.237zM534.596 348.349c0.208 12.912-9.996 23.325-22.908 23.533s-23.325-9.996-23.533-22.908c-0.208-12.704 9.788-23.325 22.492-23.533 0.208 0 0.208 0 0.417 0 12.495-0.417 23.117 9.372 23.533 22.075 0 0.417 0 0.625 0 0.833v0zM572.707 506.208c12.495-0.208 22.908 9.58 23.117 22.075 0 0.417 0 0.625 0 1.041 0.208 12.704-9.996 23.325-22.908 23.325h-0.208c-12.704-0.208-23.117-10.413-23.533-23.325 0.208-12.912 10.621-23.117 23.533-23.117v0 0zM417.139 439.982c-12.704-0.208-23.117-10.621-23.117-23.325 0.208-12.287 11.662-23.533 23.741-23.117 12.704 0.417 22.908 11.038 22.7 23.95 0.208 12.287-9.58 22.492-22.075 22.7-0.208-0.208-0.833-0.208-1.25-0.208zM582.287 417.282c-0.208-12.912 9.788-23.533 22.7-23.741v0c12.704 0.208 23.117 10.413 23.741 23.117 0 12.912-10.205 23.325-23.117 23.325-12.495 0.417-22.908-9.163-23.325-21.659 0-0.417 0-0.625 0-1.041zM478.158 529.116c0.625 12.495-8.955 22.908-21.45 23.533-0.417 0-0.833 0-1.041 0-12.704 0.625-23.533-9.372-24.158-22.075s9.372-23.533 22.075-24.158c0.417 0 0.833 0 1.041 0 12.287-0.417 22.908 9.163 23.325 21.45 0.208 0.417 0.208 0.833 0.208 1.25v0z" />
<glyph unicode="&#xe935;" glyph-name="elettrica" d="M641.456 932c13.703 0 23.047-13.322 19.122-25.886l-1.047-2.676-154.539-326.094 211.131-0.011c11.894 0 20.62-10.109 19.923-21.286l-0.374-2.811-0.789-2.824-1.277-2.792-170.214-306.276 78.064-0.011c15.449 0 24.207-16.233 17.947-28.847l-1.455-2.469-1.87-2.337-2.266-2.073-261.333-205.333c-10.451-8.212-25.537-4.058-30.654 7.634l-0.997 2.83-56 205.333c-3.203 11.744 4.712 23.332 16.32 25.045l2.975 0.217 81.35 0.011 109.12 202.656h-210.573c-11.249 0-19.79 9.1-19.961 19.722l0.165 2.929 0.606 2.97 1.030 2.761 206.771 448c2.802 6.071 8.411 10.271 14.869 11.347l3.291 0.272h130.667zM616.147 900h-95.136l-3.632-2.324-192.032-416 3.632-5.676h219.144l2.396-0.236c6.927-1.389 11.343-8.68 8.995-15.566v0l-0.969-2.182-130.523-242.372-1.479-2.149c-2.252-2.611-5.555-4.162-9.087-4.162v0l-72.413 0.011-3.859-5.053 44.16-161.824 6.33-2.092 215.082 168.971-77.3-0.013-2.413 0.239c-6.971 1.408-11.38 8.792-8.932 15.697v0l1.004 2.186 173.297 311.946-3.497 5.942-215.459-0.011-2.58 0.275c-6.611 1.438-10.914 8.28-8.975 14.992v0l0.835 2.164 157.026 331.524-3.615 5.712z" />
<glyph unicode="&#xe936;" glyph-name="share" d="M527.484 952c-269.8 0-488.516-218.716-488.516-488.516v-30.968c0-269.8 218.716-488.516 488.516-488.516s488.516 218.716 488.516 488.516v30.968c0 269.8-218.716 488.516-488.516 488.516zM527.484 904c243.29 0 440.516-197.226 440.516-440.516v-30.968c0-243.29-197.226-440.516-440.516-440.516s-440.516 197.226-440.516 440.516v30.968c0 243.29 197.226 440.516 440.516 440.516zM613.63 704c50.376 0 91.214-42.199 91.214-94.255s-40.838-94.255-91.214-94.255c-25.341 0-48.268 10.678-64.797 27.917l-121.041-72.989c2.221-8.146 3.41-16.739 3.41-25.619s-1.188-17.473-3.41-25.619l121.1-72.927c16.525 17.203 39.427 27.855 64.737 27.855 50.376 0 91.214-42.199 91.214-94.255s-40.838-94.255-91.214-94.255c-50.376 0-91.214 42.199-91.214 94.255 0 8.926 1.201 17.562 3.444 25.746l-121.073 72.865c-16.53-17.241-39.458-27.92-64.8-27.92-50.376 0-91.214 42.199-91.214 94.255s40.838 94.255 91.214 94.255c25.342 0 48.27-10.679 64.8-27.92l121.038 72.992c-2.221 8.146-3.41 16.739-3.41 25.619 0 52.055 40.838 94.255 91.214 94.255zM613.63 326.982c-15.988 0-30.055-8.501-38.198-21.368l-0.933-2.042c-0.423-0.75-0.879-1.466-1.367-2.149-3.282-6.435-5.11-13.781-5.11-21.569 0-26.028 20.419-47.127 45.607-47.127s45.607 21.1 45.607 47.127c0 26.028-20.419 47.127-45.607 47.127zM339.988 491.927c-25.188 0-45.607-21.1-45.607-47.127s20.419-47.127 45.607-47.127c25.188 0 45.607 21.1 45.607 47.127s-20.419 47.127-45.607 47.127zM613.63 656.873c-25.188 0-45.607-21.1-45.607-47.127s20.419-47.127 45.607-47.127c25.188 0 45.607 21.1 45.607 47.127s-20.419 47.127-45.607 47.127z" />
<glyph unicode="&#xe937;" glyph-name="star-outline" d="M411.488 586.336l-147.517-43.891-2.548-0.994c-8.825-4.333-11.845-15.912-5.596-24.072l93.581-122.18-3.876-153.904 0.158-2.731c1.394-9.732 11.473-16.183 21.164-12.761l145.114 51.251 145.178-51.251 2.646-0.693c9.687-1.681 18.936 5.911 18.676 16.185l-3.908 153.904 93.613 122.18 1.477 2.302c4.592 8.693 0.23 19.836-9.621 22.764l-147.549 43.891-87.302 126.738c-6.359 9.234-19.997 9.234-26.356 0l-87.334-126.738zM512 675.808l77.327-112.313 1.729-2.102c1.895-1.941 4.263-3.379 6.891-4.16l130.661-38.832-82.87-108.253-1.465-2.294c-1.26-2.402-1.897-5.098-1.827-7.839l3.443-136.27-128.561 45.367-2.634 0.685c-2.673 0.456-5.435 0.228-8.020-0.685l-128.593-45.367 3.475 136.27-0.163 2.717c-0.392 2.684-1.462 5.239-3.13 7.416l-82.902 108.253 130.693 38.832c3.504 1.041 6.546 3.252 8.62 6.263l77.327 112.313z" />
<glyph unicode="&#xea90;" glyph-name="facebook" d="M608 768h160v192h-160c-123.514 0-224-100.486-224-224v-96h-128v-192h128v-512h192v512h160l32 192h-192v96c0 17.346 14.654 32 32 32z" />
<glyph unicode="&#xea92;" glyph-name="instagram" d="M512 867.8c136.8 0 153-0.6 206.8-3 50-2.2 77-10.6 95-17.6 23.8-9.2 41-20.4 58.8-38.2 18-18 29-35 38.4-58.8 7-18 15.4-45.2 17.6-95 2.4-54 3-70.2 3-206.8s-0.6-153-3-206.8c-2.2-50-10.6-77-17.6-95-9.2-23.8-20.4-41-38.2-58.8-18-18-35-29-58.8-38.4-18-7-45.2-15.4-95-17.6-54-2.4-70.2-3-206.8-3s-153 0.6-206.8 3c-50 2.2-77 10.6-95 17.6-23.8 9.2-41 20.4-58.8 38.2-18 18-29 35-38.4 58.8-7 18-15.4 45.2-17.6 95-2.4 54-3 70.2-3 206.8s0.6 153 3 206.8c2.2 50 10.6 77 17.6 95 9.2 23.8 20.4 41 38.2 58.8 18 18 35 29 58.8 38.4 18 7 45.2 15.4 95 17.6 53.8 2.4 70 3 206.8 3zM512 960c-139 0-156.4-0.6-211-3-54.4-2.4-91.8-11.2-124.2-23.8-33.8-13.2-62.4-30.6-90.8-59.2-28.6-28.4-46-57-59.2-90.6-12.6-32.6-21.4-69.8-23.8-124.2-2.4-54.8-3-72.2-3-211.2s0.6-156.4 3-211c2.4-54.4 11.2-91.8 23.8-124.2 13.2-33.8 30.6-62.4 59.2-90.8 28.4-28.4 57-46 90.6-59 32.6-12.6 69.8-21.4 124.2-23.8 54.6-2.4 72-3 211-3s156.4 0.6 211 3c54.4 2.4 91.8 11.2 124.2 23.8 33.6 13 62.2 30.6 90.6 59s46 57 59 90.6c12.6 32.6 21.4 69.8 23.8 124.2 2.4 54.6 3 72 3 211s-0.6 156.4-3 211c-2.4 54.4-11.2 91.8-23.8 124.2-12.6 34-30 62.6-58.6 91-28.4 28.4-57 46-90.6 59-32.6 12.6-69.8 21.4-124.2 23.8-54.8 2.6-72.2 3.2-211.2 3.2v0zM512 711c-145.2 0-263-117.8-263-263s117.8-263 263-263 263 117.8 263 263c0 145.2-117.8 263-263 263zM512 277.4c-94.2 0-170.6 76.4-170.6 170.6s76.4 170.6 170.6 170.6c94.2 0 170.6-76.4 170.6-170.6s-76.4-170.6-170.6-170.6zM846.8 721.4c0-33.91-27.49-61.4-61.4-61.4s-61.4 27.49-61.4 61.4c0 33.91 27.49 61.4 61.4 61.4s61.4-27.49 61.4-61.4z" />
</font>
</defs>
</svg>
